Σύντομα πολλές κατηγοριες θα είναι ανοιχτές για όλους...

Μη Συνδεδεμενος Παρακαλώ συνδεθείτε ή εγγραφείτε

Μετάβαση στη σελίδα : 1, 2  Επόμενο

Επισκόπηση προηγούμενης Θ.Ενότητας Επισκόπηση επόμενης Θ.Ενότητας Πήγαινε κάτω  Μήνυμα [Σελίδα 1 από 2]

#1
 POPIKOSTAS




ΠΑΡΘΕΝΑ ΖΩΗ (2017 - ) 576p HDTV-Ft4U - ΣΥΝΕΧΗΣ ΑΝΑΝΕΩΣΗ



Η ft4u, απαγόρευσε το διαμοιρασμό των αρχείων της. Προφανώς, έχουν πάρει ειδική άδεια από τα κανάλια να ανεβάζουν τις εκπομπές τους και μάλιστα χωρίς τις διαφημίσεις, γι αυτό και διεκδικούν πνευματικά δικαιώματα. Κλάφτηκαν κιόλας στους διαχειριστές του site, ώστε να με αποκλείσουν και να μην έχω πρόσβαση στα αρχεία τους. Ντροπή για 1 τόσο ιστορική ομάδα, να απαρτίζεται από "μικρούς" ανθρώπους.

Ένα μοντέρνο παραμύθι για ένα μοιραίο έρωτα γεμάτο μυστικά, διλήμματα, σημερινούς ήρωες και κρυφούς «δράκους». Μια σειρά γεμάτη έρωτα, γέλιο, συγκίνηση και απροσδόκητες εξελίξεις.

Η Ζωή (Σοφίνα Λαζαράκη) είναι μια 19χρονη κοπέλα γεμάτη όνειρα για το μέλλον, ζει με την οικογένειά της, έχει σχέση, αλλά είναι ακόμα παρθένα! Μια γυναικολογική εξέταση ρουτίνας και ένα ιατρικό λάθος θα αλλάξουν τη ζωή της για πάντα. Η Ζωή θα μείνει έγκυος με σπερματέγχυση που προοριζόταν για άλλη γυναίκα. Ο Άρης (Αποστόλης Τότσικας), πλούσιος, ωραίος και παντρεμένος, δεν ξέρει ότι η Ζωή είναι έγκυος στο παιδί του. Η μοίρα θα παίξει ένα παιχνίδι που θα αλλάξει τις ζωές και των δύο για πάντα.

Η Ζωή σπουδάζει Κοινωνιολογία στο Πάντειο Πανεπιστήμιο και παράλληλα δουλεύει στον οικογενειακό φούρνο με τη μητέρα της Σοφία (Τζένη Μπότση), τη γιαγιά της Χρυσάνθη (Χριστίνα Τσάφου) και το θείο της, Διονύση (Νίκος Αναγνωστόπουλος). Ο Μάκης (Γιάννης Χατζηγεωργίου), το αγόρι της, τη λατρεύει και γι’ αυτό έχει οπλιστεί με πολύ υπομονή αφού τόσο καιρό περιμένει να ολοκληρώσουν τη σχέση τους. Η Ζωή όμως θέλει η πρώτη της φορά να είναι με κάποιον που έχει ερωτευτεί και εμπιστεύεται απόλυτα και δεν είναι σίγουρη για τον Μάκη.

Το όνειρό της Ζωής είναι να σπουδάσει φωτογράφος και έχει κάνει ήδη, κρυφά από όλους, αίτηση για υποτροφία σε αγγλικό πανεπιστήμιο η οποία γίνεται δεκτή. Όμως εκεί που ετοιμάζεται να ανοίξει τα φτερά της και να ζήσει το όνειρό της, η ζωή της θα ανατραπεί για πάντα…

Κατά τη διάρκεια της επίσκεψής της σε μια κλινική, για μια απλή γυναικολογική εξέταση, θα κάνουν σ’ εκείνη τη σπερματέγχυση που είχε προγραμματιστεί για μια άλλη γυναίκα. Και έτσι ξαφνικά η Ζωή είναι και παρθένα και έγκυος.

Ο πατέρας αυτού του παιδιού, είναι ο Άρης (Αποστόλης Τότσικας), ένας γοητευτικός επιχειρηματίας, που έχει ένα πολύ πετυχημένο online τουριστικό πρακτορείο, το “Travel Fun”. Ένα σοβαρό πρόβλημα υγείας που αντιμετώπισε πριν από μερικά χρόνια τον εμποδίζει να αποκτήσει δικό του παιδί αλλά κάνει συνεχείς προσπάθειες με τη γυναίκα του Μαρίνα (Μυριέλα Κουρεντή). Η Μαρίνα από την άλλη, δεν έχει στις προτεραιότητές της ένα παιδί, αλλά θα αλλάξει γνώμη μετά από πίεση του πατέρα της, Βίκτωρα (Δάνης Κατρανίδης) που κρύβει ένα μεγάλο μυστικό και θα στήσουν μαζί μια μεγάλη σκευωρία εναντίον του Άρη.

Όταν η Ζωή ανακαλύψει την εγκυμοσύνη της, συνειδητοποιεί πως για να φέρει στον κόσμο αυτό το παιδί, θα πρέπει να ξεχάσει τα όνειρά της και την υποτροφία. Ένα σχέδιο συγκάλυψης δεν της επιτρέπει να ανακαλύψει την αλήθεια. Η οικογένειά της θα έρθει αντιμέτωπη με μια πολύ μεγάλη πρόκληση καθώς η ανεξήγητη και αναπάντεχη εγκυμοσύνη, «ξυπνά» ενδοοικογενειακές διαμάχες του παρελθόντος.

Η μοίρα, που ένωσε δύο άγνωστους μέχρι χτες ανθρώπους με τον πιο μυστήριο τρόπο, θα φέρει τον Άρη και τη Ζωή κοντά, αφού η Ζωή θα προσληφθεί ως φωτογράφος στην εταιρεία του Άρη. Εκεί θα γνωριστεί με τον Παύλο (Γιάννης Ποιμενίδης), τον κολλητό του Άρη. Ο Άρης και ο Παύλος ξεκίνησαν μαζί την εταιρεία, αλλά στην πορεία συγκρούστηκαν και έφυγε. Τώρα επιστρέφει και η φιλία τους θα περάσει από σαράντα κύματα. Ο Παύλος θα ερωτευτεί τη Ζωή και θα τη διεκδικήσει με πάθος, αγνοώντας το μυστικό της. Ο Άρης, αγνοεί ότι η Ζωή είναι έγκυος στο παιδί του! Από την άλλη η Ζωή θα ερωτευτεί εν αγνοία της, τον πατέρα του παιδιού της.

Η αποκάλυψη του πώς η Ζωή έμεινε έγκυος αλλά και ποιός είναι ο πραγματικός πατέρας του παιδιού που κουβαλάει θα φέρει τα πάνω κάτω στις ζωές όλων… Τι θα κάνει ο Άρης; Θα τινάξει τη ζωή του στον αέρα; Τι θα κάνει η Ζωή που βρίσκεται ξαφνικά έγκυος και παρθένα, ανάμεσα σε δύο άντρες και με την οικογένειά της «απέναντι»;

Η συνέχεια στην οθόνη μας!

Συντελεστές:

Πρωταγωνιστούν: Αποστόλης Τότσικας, Σοφίνα Λαζαράκη, Χριστίνα Τσάφου, Τζένη Μπότση,

Γιάννης Ποιμενίδης, Μυριέλα Κουρεντή, Γιάννης Χατζηγεωργίου, Νίκος Αναγνωστόπουλος

Στο ρόλο του Βίκτωρα: Δάνης Κατρανίδης

Συμμετέχουν αλφαβητικά: Κώστας Αποστολάκης, Φανή Γεωργακοπούλου, Ιωάννα Ζιάννη, Αλίνα Κωτσοβούλου, Μάρκος Λεζές, Ελίνα Μάλαμα, Φωτεινή Ντεμίρη, Ήρα Ρόκου, Ευγενία Σαμαρά, Αλέξανδρος Τρανουλίδης, Χρήστος Τριπόδης, Δημήτρης Τσακαλάς, Στέλιος Φύτρος, Μάρω Χασιώτη, Φαίδρα Χατζηκωσταντή

Έκτακτη συμμετοχή: Μιχαήλ Άνθης, Φαίη Βέβη, Δημήτρης Καμπόλης, Δημήτρης Λιόλιος

Σκηνοθεσία: Πιέρρος Ανδρακάκος, Αλέξανδρος Πανταζούδης, Σπύρος Μιχαλόπουλος

Διασκευή Σεναρίου: Πέτρος Καλκόβαλης, Νίκος Παπαδόπουλος, Νίκος Σταθόπουλος, Βίκυ Κουκούτση, Αντώνης Ανδρής, Θωμάς Τσαμπάνης

Δ/νση Φωτογραφίας: Νίκος Κανέλλος, Ευγένιος Διονυσόπουλος

[video=youtube;7gGNYRKB8ZQ][Πρέπει να είστε εγγεγραμμένοι και συνδεδεμένοι για να δείτε αυτόν το σύνδεσμο.]



ΤΕΧΝΙΚΑ ΧΑΡΑΚΤΗΡΙΣΤΙΚΑ

Σπόιλερ:

General
Complete name               : Par8ena.Zwh.S01E01.576p.HDTV-Ft4U.mkv
Format                      : Matroska
Format version              : Version 4 / Version 2
File size                   : 793 MiB
Duration                    : 43mn 23s
Overall bit rate            : 2 555 Kbps
Encoded date                : UTC 2017-09-25 18:03:20
Writing application         : mkvmerge v7.7.0 ('Six Voices') 32bit built on Feb 28 2015 23:23:00
Writing library             : libebml v1.3.1 + libmatroska v1.4.2

Video
ID                          : 1
Format                      : AVC
Format/Info                 : Advanced Video Codec
Format profile              : High@L3.1
Format settings, CABAC      : Yes
Format settings, ReFrames   : 5 frames
Codec ID                    : V_MPEG4/ISO/AVC
Duration                    : 43mn 23s
Bit rate                    : 2 513 Kbps
Width                       : 1 024 pixels
Height                      : 576 pixels
Display aspect ratio        : 16:9
Frame rate mode             : Constant
Frame rate                  : 25.000 fps
Color space                 : YUV
Chroma subsampling          : 4:2:0
Bit depth                   : 8 bits
Scan type                   : Progressive
Bits/(Pixel*Frame)          : 0.170
Stream size                 : 775 MiB (98%)
Writing library             : x264 core 146 r2538 121396c
Encoding settings           : cabac=1 / ref=5 / deblock=1:0:0 / analyse=0x3:0x113 / me=umh / subme=8 / psy=1 / psy_rd=1.00:0.00 / mixed_ref=1 / me_range=16 / chroma_me=1 / trellis=1 / 8x8dct=1 / cqm=0 / deadzone=21,11 / fast_pskip=1 / chroma_qp_offset=-2 / threads=12 / lookahead_threads=2 / sliced_threads=0 / nr=0 / decimate=1 / interlaced=0 / bluray_compat=0 / constrained_intra=0 / bframes=3 / b_pyramid=2 / b_adapt=2 / b_bias=0 / direct=3 / weightb=1 / open_gop=0 / weightp=2 / keyint=250 / keyint_min=25 / scenecut=40 / intra_refresh=0 / rc_lookahead=50 / rc=abr / mbtree=1 / bitrate=2513 / ratetol=1.0 / qcomp=0.60 / qpmin=0 / qpmax=69 / qpstep=4 / ip_ratio=1.40 / aq=1:1.00
Default                     : Yes
Forced                      : No

Audio
ID                          : 2
Format                      : AAC
Format/Info                 : Advanced Audio Codec
Format profile              : HE-AAC / LC
Codec ID                    : A_AAC
Duration                    : 43mn 23s
Bit rate                    : 55.6 Kbps
Channel(s)                  : 2 channels
Channel positions           : Front: L R
Sampling rate               : 48.0 KHz / 24.0 KHz
Frame rate                  : 23.438 fps (1024 spf)
Compression mode            : Lossy
Delay relative to video     : 31ms
Stream size                 : 17.2 MiB (2%)
Default                     : Yes
Forced                      : No


Το κανάλι ενημέρωσε ότι το επεισόδιο της Δευτέρας, ήταν τελικά το 38. Η αρίθμιση που βλέπετε αυτή τη στιγμή στα ονόματα των αρχείων, είναι η σωστή. Έχουν γίνει οι απαραίτητες διορθώσεις.










Έχει επεξεργασθεί από τον/την POPIKOSTAS στις Σαβ Δεκ 09, 2017 6:53 am, 41 φορές συνολικά

#2
 POPIKOSTAS


Προστέθηκε το 9.

#3
 POPIKOSTAS


Προστέθηκε το 10.

#4
 POPIKOSTAS


Προστέθηκε το 11.

#5
 POPIKOSTAS


Προστέθηκε το 12.

#6
 POPIKOSTAS


Προστέθηκε το 13.

#7
 POPIKOSTAS


Προστέθηκε το 14.

#8
 POPIKOSTAS


Προστέθηκε το 16.

#9
 POPIKOSTAS


Προστέθηκε το 17.

#10
 POPIKOSTAS


Προστέθηκε το 18.

#11
 POPIKOSTAS


Προστέθηκε ως το 20.

#12
 POPIKOSTAS


Προστέθηκε ως το 21.

#13
 POPIKOSTAS


Προστέθηκε ως το 22.

#14
 POPIKOSTAS


Προστέθηκε ως το 23.

#15
 POPIKOSTAS


Προστέθηκε ως το 24.

#16
 POPIKOSTAS


Προστέθηκε ως το 25.

#17
 POPIKOSTAS


Προστέθηκε ως το 27.

#18
 POPIKOSTAS


Προστέθηκε ως το 28.

#19
 POPIKOSTAS


Προστέθηκε ως το 29.

#20
 POPIKOSTAS


Προστέθηκε ως το 30.

#21
 POPIKOSTAS


Προστέθηκε ως το 31.

#22
 POPIKOSTAS


Προστέθηκε ως το 32.

#23
 POPIKOSTAS


Προστέθηκε ως το 33.

#24
 POPIKOSTAS


Προστέθηκε ως το 34.

#25
 POPIKOSTAS


Προστέθηκε ως το 35.

Επισκόπηση προηγούμενης Θ.Ενότητας Επισκόπηση επόμενης Θ.Ενότητας Επιστροφή στην κορυφή  Μήνυμα [Σελίδα 1 από 2]

Μετάβαση στη σελίδα : 1, 2  Επόμενο


Δικαιώματα σας στην κατηγορία αυτή
Δεν μπορείτε να απαντήσετε στα Θέματα αυτής της Δ.Συζήτησης

Τρόποι Κοινοποίησης:
URL:
BBCode:
HTML: