Σύντομα πολλές κατηγοριες θα είναι ανοιχτές για όλους...

Μη Συνδεδεμενος Παρακαλώ συνδεθείτε ή εγγραφείτε

Επισκόπηση προηγούμενης Θ.Ενότητας Επισκόπηση επόμενης Θ.Ενότητας Πήγαινε κάτω  Μήνυμα [Σελίδα 1 από 1]

#1
 POPIKOSTAS




FRANTIC (1988) DVDRip - ΞΕΧΩΡΙΣΤΟΙ ΥΠΟΤΙΤΛΟΙ

Μεταφρασμένος Τίτλος: Φράντικ
Παραγωγή: 1988
Διάρκεια: 120'
Είδος: Crime, Drama, Mystery
Σκηνοθέτης: Roman Polanski
Σενάριο: Roman Polanski, Gerard Brach
Ηθοποιοί: Harrison Ford, Betty Buckley, Emmanuelle Seigner
Υπότιτλοι: Ελληνικοί srt

Ένας Αμερικανός γιατρός ψάχνει απεγνωσμένα να βρει τη σύζυγό του όταν εκείνη εξαφανίζεται μυστηριωδώς από το δωμάτιο του ξενοδοχείου τους στο Παρίσι, όπου βρίσκονται με την ευκαιρία ενός ιατρικού συνεδρίου. Τα ελάχιστα ίχνη τον οδηγούν σε μια γοητευτική νεαρή, που συνταξίδευε μαζί τους αεροπορικώς και της οποίας οι αποσκευές μπερδεύτηκαν με αυτές της συζύγου του γιατρού.

Ένα γοητευτικό χιτσκοκικό παιχνίδι που ενεργοποιείται όταν ο Δρ. Ρίτσαρντ βγαίνει από το μπάνιο του δωματίου ενός παριζιάνικου ξενοδοχείου. Πού βρίσκεται η γυναίκα του; Οι χαοτικές περιπλοκές εξελίσσονται σε ένα ιδιόμορφο εφιάλτη, με πληθώρα αναφορών στον μετρ – προσέξτε τη σκηνή στη στέγη – που εν πολλοίς οφείλονται στο περίτεχνο σενάριο του Gerard Brach. Βέβαια τα… δεξιά χέρια του Polanski εν προκειμένω είναι παραπάνω από ένα, καθώς στην φωτογραφία διαθέτει τον Witold Sobocinski και στη μουσική τον Ennio Morricone. Μια δυνατή επιστροφή μετά την ψυχρή υποδοχή που είχαν συναντήσει οι «Πειρατές», με ορισμένα ψεγάδια στους ρυθμούς της λύσης του μυστηρίου.

cine.gr

[video][Πρέπει να είστε εγγεγραμμένοι και συνδεδεμένοι για να δείτε αυτόν το σύνδεσμο.]



Κώδικας:
http://www.imdb.com/title/tt0095174/

ΤΕΧΝΙΚΑ ΧΑΡΑΚΤΗΡΙΣΤΙΚΑ

Σπόιλερ:

Format : Matroska

Format version : Version 4 / Version 2

File size : 1.47 GiB

Duration : 1 h 54 min

Overall bit rate : 1 833 kb/s

Encoded date : UTC 2017-10-03T16:08:26Z

Writing application : HandBrake 1.0.7 2017040900

Writing library : Lavf57.7.2 / Lavf57.7.2

Video

ID : 1

Format : AVC

Format/Info : Advanced Video Codec

Format profile : High@L4.1

Format settings, CABAC : Yes

Format settings, ReFrames : 4 frames

Codec ID : V_MPEG4/ISO/AVC

Duration : 1 h 54 min

Bit rate : 1 600 kb/s

Width : 720 pixels

Height : 400 pixels

Display aspect ratio : 16:9

Frame rate mode : Constant

Frame rate : 25.000 FPS

Color space : YUV

Chroma subsampling : 4:2:0

Bit depth : 8 bits

Scan type : Progressive

Bits/(Pixel*Frame) : 0.222

Stream size : 1.26 GiB (86%)

Writing library : x264 core 148 r2708 86b7198

Encoding settings : cabac=1 / ref=3 / deblock=1:0:0 / analyse=0x3:0x113 / me=hex / subme=7 / psy=1 / psy_rd=1.00:0.00 / mixed_ref=1 / me_range=16 / chroma_me=1 / trellis=1 / 8x8dct=1 / cqm=0 / deadzone=21,11 / fast_pskip=1 / chroma_qp_offset=-2 / threads=3 / lookahead_threads=1 / sliced_threads=0 / nr=0 / decimate=1 / interlaced=0 / bluray_compat=0 / constrained_intra=0 / bframes=3 / b_pyramid=2 / b_adapt=1 / b_bias=0 / direct=1 / weightb=1 / open_gop=0 / weightp=2 / keyint=250 / keyint_min=25 / scenecut=40 / intra_refresh=0 / rc_lookahead=40 / rc=abr / mbtree=1 / bitrate=1600 / ratetol=1.0 / qcomp=0.60 / qpmin=0 / qpmax=69 / qpstep=4 / vbv_maxrate=62500 / vbv_bufsize=78125 / nal_hrd=none / filler=0 / ip_ratio=1.40 / aq=1:1.00

Default : Yes

Forced : No

Color range : Limited

Color primaries : BT.601 PAL

Transfer characteristics : BT.709

Matrix coefficients : BT.601

Audio

ID : 2

Format : AC-3

Format/Info : Audio Coding 3

Mode extension : CM (complete main)

Format settings, Endianness : Big

Codec ID : A_AC3

Duration : 1 h 54 min

Bit rate mode : Constant

Bit rate : 224 kb/s

Channel(s) : 2 channels

Channel positions : Front: L R

Sampling rate : 48.0 kHz

Frame rate : 31.250 FPS (1536 spf)

Bit depth : 16 bits

Compression mode : Lossy

Delay relative to video : -5 ms

Stream size : 184 MiB (12%)

Title : Stereo

Language : English

Default : Yes

Forced : No








Επισκόπηση προηγούμενης Θ.Ενότητας Επισκόπηση επόμενης Θ.Ενότητας Επιστροφή στην κορυφή  Μήνυμα [Σελίδα 1 από 1]


Δικαιώματα σας στην κατηγορία αυτή
Δεν μπορείτε να απαντήσετε στα Θέματα αυτής της Δ.Συζήτησης

Τρόποι Κοινοποίησης:
URL:
BBCode:
HTML: