Σύντομα πολλές κατηγοριες θα είναι ανοιχτές για όλους...

Μη Συνδεδεμενος Παρακαλώ συνδεθείτε ή εγγραφείτε

Μετάβαση στη σελίδα : 1, 2, 3, 4, 5, 6  Επόμενο

Επισκόπηση προηγούμενης Θ.Ενότητας Επισκόπηση επόμενης Θ.Ενότητας Πήγαινε κάτω  Μήνυμα [Σελίδα 1 από 6]

#1
 loufjohn


ΕΛΑ ΣΤΗ ΘΕΣΗ ΜΟΥ Β΄ΚΥΚΛΟΣ - ALPHA (2017-) TVRip AVI




[Πρέπει να είστε εγγεγραμμένοι και συνδεδεμένοι για να δείτε αυτόν το σύνδεσμο.]



Έχουν περάσει λίγες μόνο μέρες από τότε που αφήσαμε τους ήρωές μας, αλλά όλα έχουν αλλάξει! Η Ρενάτα αγνοείται και ο Αχιλλέας την ψάχνει σαν τρελός. Η Αιμιλία και
ο Βλάσης πρέπει να μάθουν να ζουν στην φτώχεια, ενώ η Φαίη και ο Δαμιανός λύνουν και δένουν στην εταιρία και την έπαυλη. Και σαν να μην έφταναν αυτά, μία μυστηριώδης
γυναίκα φτάνει στην Αθήνα, κρύβοντας μυστικά που θα ανακατέψουν την τράπουλα των εξελίξεων. Και δεν είναι η μόνη νέα άφιξη στις ζωές των παλιόφιλών μας. Μόνο να ήξεραν
τι τους περιμένει φέτος… Ελάτε στη θέση τους, ξανά!
 
 
Νέα σεζόν, νέα βάσανα για την οικογένεια Σοφοκλέους! Η αγαπημένη καθημερινή κωμική σειρά, «Έλα στη Θέση μου» επιστρέφει στον Alpha
 
Φέτος, η πανίσχυρη Αιμιλία και οι γιοι της, Βλάσης και Αχιλλέας, βρίσκονται πλέον σε μειονεκτική θέση, αφού η Sofo Express International έχει περάσει στα χέρια
του Δαμιανού, της Φαίης και της Σύλβιας. Ο μεγάλος κίνδυνος, όμως, έρχεται απ' «έξω», και ακούει στο όνομα Μένη Σουλτς (Ναταλία Δραγούμη). Η σκληρή Ελληνογερμανίδα
με καταγωγή από την Κοζάνη έχει ένα κρυμμένο μυστικό που τη συνδέει με την οικογένεια Σοφοκλέους και φέρνει μαζί της ένα «τσουνάμι» εξελίξεων και ανατροπών.
Όσο άσχημα εξελίσσονται τα πράγματα για την επαγγελματική ζωή των ηρώων, άλλο τόσο ταραχώδης είναι και η προσωπική τους ζωή. Τι θα γίνει με τις διαλυμένες σχέσεις
των Βλάση – Φαίης και Αχιλλέα – Ρενάτας; Θα τα βρουν μεταξύ τους; Θα προσπαθήσουν να λύσουν τις διαφορές τους; Κανείς δεν ξέρει. Ειδικά όταν, στην ήδη εκρηκτική εξίσωση,
 μπαίνουν η Βασιλίνα (Αναστασία Παντούση) και ο Γιαν (Ορέστης Καρύδας), τα δύο παιδιά της Μένης Σουλτς. Η τράπουλα, για όλους και για όλα, ανακατεύεται ξανά
και κανείς δεν ξέρει το φύλλο που θα τραβήξει!
 
Η σειρά βασίζεται στην τηλενουβέλα «Nuevo Rico Nuevo Pobre».
 
Το σενάριο υπογράφει ο Γιώργος Κρητικός και τη σκηνοθεσία ο Γιάννης Βασιλειάδης, ο Σπύρος Ρασιδάκης και ο Βασίλης Τσελεμέγκος.
 
Στους πρωταγωνιστικούς ρόλους οι: Γιάννης Τσιμιτσέλης, Αθηνά Οικονομάκου, Μιχάλης Μαρίνος, Μαρίνος Κόνσολος, Ευαγγελία Συριοπούλου, Ναταλία Δραγούμη, Άνδρη Θεοδότου,
Χάρης Γρηγορόπουλος, Μαρία Ανδρούτσου, Αναστάσης Κολοβός, Πάνος Σταθακόπουλος, Ερμόλαος Ματθαίου, Εύα Δαελή, Νικόλας Απέργης, Καλή Δάβρη, Αναστασία Παντούση,
Ορέστης Καρύδας, Βασιλική Αγγέλη κ.α.
Στο ρόλο της Αιμιλίας, η Μαρία Φιλίππου
Στο ρόλο του Λεωνίδα, ο Παύλος Ευαγγελόπουλος
 
Εκτέλεση παραγωγής J.K. Productions - ΚΑΡΑΓΙΑΝΝΗΣ

[Πρέπει να είστε εγγεγραμμένοι και συνδεδεμένοι για να δείτε αυτόν το σύνδεσμο.]





[Πρέπει να είστε εγγεγραμμένοι και συνδεδεμένοι για να δείτε αυτόν το σύνδεσμο.]


   General
      Complete name :ELA.S02.EP.01.avi
      Format : AVI
      Format/Info : Audio Video Interleave
      File size : 1.36 GiB
      Duration : 47 min 53 s
      Overall bit rate : 4 067 kb/s
   Video [Πρέπει να είστε εγγεγραμμένοι και συνδεδεμένοι για να δείτε αυτόν το σύνδεσμο.]
      ID : 0
      Format : AVC
      Format/Info : Advanced Video Codec
      Format profile : Baseline@L3
      Format settings, CABAC : No
      Format settings, ReFrames : 1 frame
      Codec ID : H264
      Duration : 47 min 53 s
      Bit rate : 3 925 kb/s
      Width : 640 pixels
      Height : 352 pixels
      Display aspect ratio : 16:9
      Frame rate : 25.000 FPS
      Color space : YUV
      Chroma subsampling : 4:2:0
      Bit depth : 8 bits
      Scan type : Progressive
      Bits/(Pixel*Frame) : 0.697
      Stream size : 1.31 GiB (97%)
      Writing library : x264 core 146 r2538 121396c
    
   Audio [Πρέπει να είστε εγγεγραμμένοι και συνδεδεμένοι για να δείτε αυτόν το σύνδεσμο.]
      ID : 1
      Format : MPEG Audio
      Format version : Version 1
      Format profile : Layer 3
      Codec ID : 55
      Codec ID/Hint : MP3
      Duration : 47 min 53 s
      Bit rate mode : Constant
      Bit rate : 128 kb/s
      Channel(s) : 2 channels
      Sampling rate : 48.0 kHz
      Compression mode : Lossy
      Stream size : 43.8 MiB (3%)
      Alignment : Aligned on interleaves
      Interleave, duration : 24  ms (0.60 video frame)
 
[Πρέπει να είστε εγγεγραμμένοι και συνδεδεμένοι για να δείτε αυτόν το σύνδεσμο.]





[Πρέπει να είστε εγγεγραμμένοι και συνδεδεμένοι για να δείτε αυτόν το σύνδεσμο.]


[Πρέπει να είστε εγγεγραμμένοι και συνδεδεμένοι για να δείτε αυτόν το σύνδεσμο.]




[Πρέπει να είστε εγγεγραμμένοι και συνδεδεμένοι για να δείτε αυτόν το σύνδεσμο.]




Έχει επεξεργασθεί από τον/την loufjohn στις Τετ Μάης 23, 2018 6:33 am, 138 φορές συνολικά

#2
 drakodtas

avatar
thenx


__________________
ΚΑΝΤΕ ΕΥΚΟΛΑ ΚΑΙ ΓΡΗΓΟΡΑ ΛΟΓΑΡΙΑΣΜΟ ΣΤΟ [size=18]WORLDBYTEZ Ή ΣΤΟ COOLBYTEZ Η ΣΤΟ EASYBYTEZ  ΠΑΤΩΝΤΑΣ ΣΤΑ ΠΑΡΑΚΑΤΩ ΚΟΥΜΠΙΑ KAI KATEΒΑΣΤΕ ΣΑΝ PREMIUM[/size]

[Πρέπει να είστε εγγεγραμμένοι και συνδεδεμένοι για να δείτε αυτόν το σύνδεσμο.]    [Πρέπει να είστε εγγεγραμμένοι και συνδεδεμένοι για να δείτε αυτόν το σύνδεσμο.]   

[Πρέπει να είστε εγγεγραμμένοι και συνδεδεμένοι για να δείτε αυτόν το σύνδεσμο.]



#3
 loufjohn


ΑΝΕΒΗΚΕ ΕΩΣ ΤΟ 18

#4
 loufjohn


ΑΝΕΒΗΚΕ ΕΩΣ ΤΟ 19

#5
 loufjohn


ΑΝΕΒΗΚΕ ΕΩΣ ΤΟ 20

#6
 loufjohn


ΑΝΕΒΗΚΕ ΕΩΣ ΤΟ 21

#7
 loufjohn


ΑΝΕΒΗΚΕ ΕΩΣ ΤΟ 22

#8
 loufjohn


ΑΝΕΒΗΚΕ ΕΩΣ ΤΟ 23

#9
 loufjohn


ΑΝΕΒΗΚΕ ΕΩΣ ΤΟ 24

#10
 loufjohn


ΑΝΕΒΗΚΕ ΕΩΣ ΤΟ 25

#11
 loufjohn


ΑΝΕΒΗΚΕ ΕΩΣ ΤΟ 26

#12
 loufjohn


ΑΝΕΒΗΚΕ ΕΩΣ ΤΟ 27

#13
 loufjohn


ΑΝΕΒΗΚΕ ΕΩΣ ΤΟ 28

#14
 loufjohn


ΑΝΕΒΗΚΕ ΕΩΣ ΤΟ 29

#15
 loufjohn


ΑΝΕΒΗΚΕ ΕΩΣ ΤΟ 30

#16
 loufjohn


ΑΝΕΒΗΚΕ ΕΩΣ ΤΟ 31

#17
 loufjohn


ΑΝΕΒΗΚΕ ΕΩΣ ΤΟ 32

#18
 loufjohn


ΑΝΕΒΗΚΕ ΕΩΣ ΤΟ 33

#19
 loufjohn


ΑΝΕΒΗΚΕ ΕΩΣ ΤΟ 34

#20
 loufjohn


ΑΝΕΒΗΚΕ ΕΩΣ ΤΟ 35

#21
 loufjohn


ΑΝΕΒΗΚΕ ΕΩΣ ΤΟ 36

#22
 loufjohn


ΑΝΕΒΗΚΕ ΕΩΣ ΤΟ 37

#23
 loufjohn


ΑΝΕΒΗΚΕ ΕΩΣ ΤΟ 38

#24
 loufjohn


ΑΝΕΒΗΚΕ ΕΩΣ ΤΟ 39

#25
 loufjohn


ΑΝΕΒΗΚΕ ΕΩΣ 40

Επισκόπηση προηγούμενης Θ.Ενότητας Επισκόπηση επόμενης Θ.Ενότητας Επιστροφή στην κορυφή  Μήνυμα [Σελίδα 1 από 6]

Μετάβαση στη σελίδα : 1, 2, 3, 4, 5, 6  Επόμενο


Δικαιώματα σας στην κατηγορία αυτή
Δεν μπορείτε να απαντήσετε στα Θέματα αυτής της Δ.Συζήτησης

Τρόποι Κοινοποίησης:
URL:
BBCode:
HTML: