Σύντομα πολλές κατηγοριες θα είναι ανοιχτές για όλους...

Μη Συνδεδεμενος Παρακαλώ συνδεθείτε ή εγγραφείτε

Μετάβαση στη σελίδα : 1, 2, 3, 4  Επόμενο

Επισκόπηση προηγούμενης Θ.Ενότητας Επισκόπηση επόμενης Θ.Ενότητας Πήγαινε κάτω  Μήνυμα [Σελίδα 1 από 4]

#1
 loufjohn


LA PASTA POMILΩRI (2017-) ANT1 WEBRip







[Πρέπει να είστε εγγεγραμμένοι και συνδεδεμένοι για να δείτε αυτόν το σύνδεσμο.]

Πόσοι γνωρίζουν ότι η ντομάτα ονομάζεται και «φρούτο του έρωτα» …ναι αλήθεια … και σε αυτή την γλυκιά σειρά με αυτό θα ασχοληθούμε ..με αυτό το ολοκόκκινο φρούτο
του πάθους αλλά και με τον .. έρωτα ..
Ας μπούμε σε κάποια γειτονιά λοιπόν … φτωχική ,γραφική γειτονιά … που χαρούμενοι άνθρωποι εκεί έχουν πάντα γιορτή και μοιράζουνε φιλιά … που έχει νέες αλλά και γριές
που για τον έρωτα μιλούν και άσε που μέρα νύχτα τραγουδούν κλπ κλπ… τι θα γίνει όμως όταν κάποιοι έρθουν για τους πάρουν αυτό τον χαρούμενο κόσμο …
Τι θα γίνει; … αντί άσπρες κορδέλες που τα κορίτσια φοράνε θα τα βάψουνε μαύρα και θα σβήσουν το χαμόγελο … ή θα κάνουν τα πάντα για την γειτονιά τη γη
και την ζωή τους … ;
πάμε να το μάθουμε μαζί τους …  πάμε να ζήσουμε εκεί που όλοι κατά βάθος θα θέλαμε … σε μια τέτοια χωριού γειτονιά … πάμε να καλλιεργήσουμε μαζί τους
το φρούτο του έρωτα και να φτιάξουμε την ωραιότερη μακαρονάδα με κόκκινη σάλτσα .. la pasta pomilώri λοιπόν … και καλή όρεξη …
Ηθοποιοί: Ηράκλης Γιωργαλλής, Κώστας Καζάκας, Μαρούσα Αβρααμίδου, Βαλεντίνα Σοφοκλέους, Λιάνα Χαλκιά, Λώρης Λοϊζίδης, Μάριος Δημητρίου, Φώτης Γιωργίδης,
Πανίκος Πιλάλης, Μαριάννα Σάντη, Λουκία Πρωτοπαπά, Μαρία Μαστρίδου, Βίκτωρ Νικολαϊδης, Κωνσταντίνος Σωκράτους, Βιντζέσο Λορούσσο.

[Πρέπει να είστε εγγεγραμμένοι και συνδεδεμένοι για να δείτε αυτόν το σύνδεσμο.]




[Πρέπει να είστε εγγεγραμμένοι και συνδεδεμένοι για να δείτε αυτόν το σύνδεσμο.]


   General
      Complete name :LA.PASTA.EP.01.avi
      Format : AVI
      Format/Info : Audio Video Interleave
      File size : 1.20 GiB
      Duration : 46 min 0 s
      Overall bit rate : 3 725 kb/s
   Video [Πρέπει να είστε εγγεγραμμένοι και συνδεδεμένοι για να δείτε αυτόν το σύνδεσμο.]
      ID : 0
      Format : AVC
      Format/Info : Advanced Video Codec
      Format profile : Baseline@L3.1
      Format settings, CABAC : No
      Format settings, ReFrames : 1 frame
      Codec ID : H264
      Duration : 46 min 0 s
      Bit rate : 3 579 kb/s
      Width : 960 pixels
      Height : 540 pixels
      Display aspect ratio : 16:9
      Frame rate : 50.000 FPS
      Color space : YUV
      Chroma subsampling : 4:2:0
      Bit depth : 8 bits
      Scan type : Progressive
      Bits/(Pixel*Frame) : 0.138
      Stream size : 1.15 GiB (96%)
      Writing library : x264 core 146 r2538 121396c
     
   Audio [Πρέπει να είστε εγγεγραμμένοι και συνδεδεμένοι για να δείτε αυτόν το σύνδεσμο.]
      ID : 1
      Format : MPEG Audio
      Format version : Version 1
      Format profile : Layer 3
      Codec ID : 55
      Codec ID/Hint : MP3
      Duration : 46 min 0 s
      Bit rate mode : Constant
      Bit rate : 128 kb/s
      Channel(s) : 2 channels
      Sampling rate : 48.0 kHz
      Compression mode : Lossy
      Stream size : 42.1 MiB (3%)
      Alignment : Aligned on interleaves
      Interleave, duration : 24  ms (1.20 video frame) 


[Πρέπει να είστε εγγεγραμμένοι και συνδεδεμένοι για να δείτε αυτόν το σύνδεσμο.]



[Πρέπει να είστε εγγεγραμμένοι και συνδεδεμένοι για να δείτε αυτόν το σύνδεσμο.]


[Πρέπει να είστε εγγεγραμμένοι και συνδεδεμένοι για να δείτε αυτόν το σύνδεσμο.]



[Πρέπει να είστε εγγεγραμμένοι και συνδεδεμένοι για να δείτε αυτόν το σύνδεσμο.]







Έχει επεξεργασθεί από τον/την loufjohn στις Πεμ Μαϊος 17, 2018 8:17 am, 93 φορές συνολικά

#2
 loufjohn


ΑΝΕΒΗΚΕ ΕΩΣ ΤΟ 10

#3
 loufjohn


ΑΝΕΒΗΚΕ ΕΩΣ ΤΟ 11

#4
 loufjohn


ΑΝΕΒΗΚΕ ΕΩΣ ΤΟ 12

#5
 loufjohn


ΑΝΕΒΗΚΕ ΕΩΣ ΤΟ 13

#6
 loufjohn


ΑΝΕΒΗΚΕ ΕΩΣ ΤΟ 14

#7
 loufjohn


ΑΝΕΒΗΚΕ ΕΩΣ ΤΟ 15

#8
 loufjohn


ΑΝΕΒΗΚΕ ΕΩΣ ΤΟ 16

#9
 loufjohn


ΑΝΕΒΗΚΕ ΕΩΣ ΤΟ 17

#10
 loufjohn


ΑΝΕΒΗΚΕ ΕΩΣ ΤΟ 19

#11
 loufjohn


ΑΝΕΒΗΚΕ ΕΩΣ ΤΟ 20

#12
 loufjohn


ΑΝΕΒΗΚΕ ΕΩΣ 21

#13
 loufjohn


ΑΝΕΒΗΚΕ ΕΩΣ ΤΟ 22

#14
 loufjohn


ΑΝΕΒΗΚΕ ΕΩΣ ΤΟ 24

#15
 loufjohn


ΑΝΕΒΗΚΕ ΕΩΣ ΤΟ 26

#16
 loufjohn


ΑΝΕΒΗΚΕ ΕΩΣ 27

#17
 loufjohn


ΑΝΕΒΗΚΕ ΕΩΣ 28

#18
 loufjohn


ΑΝΕΒΗΚΕ ΕΩΣ ΤΟ 30

#19
 loufjohn


ΑΝΕΒΗΚΕ ΕΩΣ 31

#20
 loufjohn


ΑΝΕΒΗΚΕ  ΕΩΣ 32

#21
 loufjohn


ΑΝΕΒΗΚΕ ΕΩΣ 33

#22
 loufjohn


ΑΝΕΒΗΚΕ ΕΩΣ 34

#23
 loufjohn


ΑΝΕΒΗΚΕ ΕΩΣ ΤΟ 35

#24
 loufjohn


ΑΝΕΒΗΚΕ ΕΩΣ ΤΟ 36

#25
 loufjohn


ΑΝΕΒΗΚΕ ΕΩΣ 37

Επισκόπηση προηγούμενης Θ.Ενότητας Επισκόπηση επόμενης Θ.Ενότητας Επιστροφή στην κορυφή  Μήνυμα [Σελίδα 1 από 4]

Μετάβαση στη σελίδα : 1, 2, 3, 4  Επόμενο


Δικαιώματα σας στην κατηγορία αυτή
Δεν μπορείτε να απαντήσετε στα Θέματα αυτής της Δ.Συζήτησης

Τρόποι Κοινοποίησης:
URL:
BBCode:
HTML: