Σύντομα πολλές κατηγοριες θα είναι ανοιχτές για όλους...

Μη Συνδεδεμενος Παρακαλώ συνδεθείτε ή εγγραφείτε

Μετάβαση στη σελίδα : 1, 2, 3  Επόμενο

Επισκόπηση προηγούμενης Θ.Ενότητας Επισκόπηση επόμενης Θ.Ενότητας Πήγαινε κάτω  Μήνυμα [Σελίδα 1 από 3]

#1
 loufjohn


NOMADS ANT1 (2017-) TVRip AVI HD





[Πρέπει να είστε εγγεγραμμένοι και συνδεδεμένοι για να δείτε αυτόν το σύνδεσμο.]

Nomads: έρχεται και είναι καθηλωτικό!
Η απόλυτη τηλεοπτική εμπειρία


[Πρέπει να είστε εγγεγραμμένοι και συνδεδεμένοι για να δείτε αυτόν το σύνδεσμο.]





[Πρέπει να είστε εγγεγραμμένοι και συνδεδεμένοι για να δείτε αυτόν το σύνδεσμο.]


   General
      Complete name :NOMADES.EP.01.1080p.avi
      Format : AVI
      Format/Info : Audio Video Interleave
      File size : 2.87 GiB
      Duration : 1 h 41 min
      Overall bit rate : 4 055 kb/s
   Video [Πρέπει να είστε εγγεγραμμένοι και συνδεδεμένοι για να δείτε αυτόν το σύνδεσμο.]
      ID : 0
      Format : AVC
      Format/Info : Advanced Video Codec
      Format profile : Baseline@L4.2
      Format settings, CABAC : No
      Format settings, ReFrames : 1 frame
      Codec ID : H264
      Duration : 1 h 41 min
      Bit rate : 3 909 kb/s
      Width : 1 920 pixels
      Height : 1 080 pixels
      Display aspect ratio : 16:9
      Frame rate : 50.000 FPS
      Color space : YUV
      Chroma subsampling : 4:2:0
      Bit depth : 8 bits
      Scan type : Progressive
      Bits/(Pixel*Frame) : 0.038
      Stream size : 2.77 GiB (96%)
      Writing library : x264 core 146 r2555 0c21480
     
   Audio [Πρέπει να είστε εγγεγραμμένοι και συνδεδεμένοι για να δείτε αυτόν το σύνδεσμο.]
      ID : 1
      Format : MPEG Audio
      Format version : Version 1
      Format profile : Layer 3
      Codec ID : 55
      Codec ID/Hint : MP3
      Duration : 1 h 41 min
      Bit rate mode : Constant
      Bit rate : 128 kb/s
      Channel(s) : 2 channels
      Sampling rate : 48.0 kHz
      Compression mode : Lossy
      Stream size : 92.9 MiB (3%)
      Alignment : Aligned on interleaves
      Interleave, duration : 24  ms (1.20 video frame)
  
 
[Πρέπει να είστε εγγεγραμμένοι και συνδεδεμένοι για να δείτε αυτόν το σύνδεσμο.]





[Πρέπει να είστε εγγεγραμμένοι και συνδεδεμένοι για να δείτε αυτόν το σύνδεσμο.]


[Πρέπει να είστε εγγεγραμμένοι και συνδεδεμένοι για να δείτε αυτόν το σύνδεσμο.]

     Βοηθήστε εντελώς ανέξοδα τους uploaders, ανανεώνοντας τακτικά την ip σας, με 1 απλή επανεκκίνηση του router.


[Πρέπει να είστε εγγεγραμμένοι και συνδεδεμένοι για να δείτε αυτόν το σύνδεσμο.]





Έχει επεξεργασθεί από τον/την loufjohn στις Σαβ Δεκ 23, 2017 8:47 am, 48 φορές συνολικά

#2
 loufjohn


ΑΝΕΒΗΚΕ ΕΩΣ ΤΟ 12

#3
 loufjohn


ανεβηκε εωσ το 13

#4
 loufjohn


ΑΝΕΒΗΚΕ ΕΩΣ ΤΟ 14

#5
 loufjohn


ΑΝΕΒΗΚΕ ΕΩΣ ΤΟ 15

#6
 loufjohn


ΑΝΕΒΗΚΕ ΕΩΣ ΤΟ 16

#7
 loufjohn


ΑΝΕΒΗΚΕ ΕΩΣ ΤΟ 17

#8
 loufjohn


ΑΝΕΒΗΚΕ ΕΩΣ ΤΟ 18

#9
 loufjohn


ΑΝΕΒΗΚΕ ΕΩΣ ΤΟ 19

#10
 loufjohn


ΑΝΕΒΗΚΕ ΕΩΣ ΤΟ 20

#11
 loufjohn


ΑΝΕΒΗΚΕ ΕΩΣ ΤΟ 21

#12
 loufjohn


ΑΝΕΒΗΚΕ ΕΩΣ ΤΟ 22

#13
 loufjohn


ΑΝΕΒΗΚΕ ΕΩΣ ΤΟ 23

#14
 loufjohn


ΑΝΕΒΗΚΕ ΕΩΣ ΤΟ 24

#15
 loufjohn


ΑΝΕΒΗΚΕ ΕΩΣ ΤΟ 25

#16
 loufjohn


ΑΝΕΒΗΚΕ ΕΩΣ ΤΟ 26

#17
 loufjohn


ΑΝΕΒΗΚΕ ΕΩΣ ΤΟ 27

#18
 loufjohn


ΑΝΕΒΗΚΕ ΕΩΣ ΤΟ 28

#19
 loufjohn


ΑΝΕΒΗΚΕ ΕΩΣ ΤΟ 30

#20
 loufjohn


ΑΝΕΒΗΚΕ ΕΩΣ ΤΟ 31

#21
 loufjohn


ΑΝΕΒΗΚΕ ΕΩΣ ΤΟ 32

#22
 loufjohn


ΑΝΕΒΗΚΕ ΕΩΣ ΤΟ 33

#23
 loufjohn


ΑΝΕΒΗΚΕ ΕΩΣ 34

#24
 loufjohn


ΑΝΕΒΗΚΕ ΕΩΣ 35

#25
 loufjohn


ΑΝΕΒΗΚΕ ΕΩΣ ΤΟ 36

Επισκόπηση προηγούμενης Θ.Ενότητας Επισκόπηση επόμενης Θ.Ενότητας Επιστροφή στην κορυφή  Μήνυμα [Σελίδα 1 από 3]

Μετάβαση στη σελίδα : 1, 2, 3  Επόμενο


Δικαιώματα σας στην κατηγορία αυτή
Δεν μπορείτε να απαντήσετε στα Θέματα αυτής της Δ.Συζήτησης

Τρόποι Κοινοποίησης:
URL:
BBCode:
HTML: