Σύντομα πολλές κατηγοριες θα είναι ανοιχτές για όλους...

Μη Συνδεδεμενος Παρακαλώ συνδεθείτε ή εγγραφείτε

Μετάβαση στη σελίδα : 1, 2, 3, 4, 5  Επόμενο

Επισκόπηση προηγούμενης Θ.Ενότητας Επισκόπηση επόμενης Θ.Ενότητας Πήγαινε κάτω  Μήνυμα [Σελίδα 1 από 5]

#1
 loufjohn


ΓΑΛΑΤΕΙΑ Β΄ΚΥΚΛΟΣ (2017-) ΣΙΓΜΑ ΚΥΠΡΟΥ WEBRip ΣΥΝ. ΕΝΗΜΕΡΩΣΗ





[Πρέπει να είστε εγγεγραμμένοι και συνδεδεμένοι για να δείτε αυτόν το σύνδεσμο.]

ΞΕΚΙΝΑ Ο Β΄ΚΥΚΛΟΣ

Ο έρωτας που ξεπερνά τα εμπόδια… Οι δυστυχίες του πολέμου… Η πάλη του καλού με το κακό… Τα πάθη και τα μυστήρια που κουβαλά ο κάθε άνθρωπος.
Και όλα στο χρώμα της ταραγμένης εποχής του 1941-1950.
 
1941-1942… Τα δύσκολα χρόνια του πολέμου…. Σε ένα ημιορεινό χωριό της Κύπρου, στην επαρχία της Λάρνακας, ο μεγαλοτσιφλικάς και τοκογλύφος
Καράγιωρκης (Κρίστοφερ Γκρέκο), με τη συνεργασία του διορισμένου από την Αγγλική διοίκηση μουχτάρη Μιχαηλά (Ανδρέας Μελέκκης), καταδυναστεύει
και κατακλέβει τους συγχωριανούς του. Απορρίπτει την επιθυμία της κόρης του Γαλάτειας (Βαρβάρα Χριστοφή) για ανώτερες σπουδές και εξοργίζεται
όταν μαθαίνει για το ειδύλλιο της με τον Πετρή (Χρήστος Τουμάζου), τον γιο του φτωχού γεωργ[Πρέπει να είστε εγγεγραμμένοι και συνδεδεμένοι για να δείτε αυτόν το σύνδεσμο.]ού Κυριάκου (Νεοκλής Νεοκλέους). Την πιέζει
να αρραβωνιαστεί έναν μεγαλέμπορο από τη Λεμεσό τον οποίο η ίδια απεχθάνεται. Ο Κυριάκος, με χίλια βάσανα, βάζοντας υποθήκη και όλα του
τα κτήματα στον Καράγιωρκη, καταφέρνει να σπουδάσει τον γιο του, γιατρό στην Αγγλία. Ο τοκογλύφος ωστόσο, χρησιμοποιώντας δόλια μέσα
και πλαστογραφίες, του παίρνει όλη του την περιουσία, με τραγικά αποτελέσματα.
 
Στο μεταξύ, πολλοί νέοι του χωριού φεύγουν εθελοντές στον πόλεμο. Μια τέτοια επιθυμία εκφράζει και ο φίλος του Πετρή, ο Στεφανής (Ιάκωβος Χατζηβασίλη),
γιος του καφετζή του χωριού Χαμπή (Ανδρέας Αργυρίδης). Τον Στεφανή όμως συγκρατεί ο έρωτας του για την Φανούλα (Ελευθερία Ανδρέα), εγγονή
της γριάς Φλουρεντζούς (Άλκηστης Παυλίδου), της μαμής, η οποία και την ανάθρεψε. Η μητέρα της Φανούλας, η Μαργαρίτα (Μάρα Κωνσταντίνου),
έχει φύγει από το χωριό πριν χρόνια. Εργάζεται (τραγουδά και χορεύει) σε ένα νυχτερινό κέντρο στη Λεμεσό. Το κέντρο αυτό διευθύνει
ο συγχωριανός τους Άγγελος ή Αντζουλής (Κώστας Δημητρίου), άνθρωπος του υπόκοσμου, ο οποίος εκτός των άλλων είναι και μαυραγορίτης.
Κρύβει αγαθά εκμεταλλευόμενος τη δυστυχία του κόσμου και την έλλειψη τροφίμων.
 
Στο χωριό, λόγω της πείνας που χτύπησε το νησί της, τη Χίο, με τον ερχομό των Γερμανών, φτάνει πρόσφυγας η Μαριγώ (Δέσποινα Μπεμπεδέλη).
Ηλικιωμένη γυναίκα, παντρεμένη με Κύπριο, τον Πανάγο, που πέθανε εκείνη τη χρονιά από ασιτία. Ψάχνει το πατρικό της σπίτι και τον αδελφό
του συζύγου της που δεν είναι άλλος από τον Αντζουλή. Με αυτόν θα έρθει σε έντονη σύγκρουση…
 
 
ΗΘΟΠΟΙΟΙ:
 
Κρίστοφερ Γκρέκο – Καράγιωρκης
Άλκηστης Παυλίδου – Φλουρεντζού
Δέσποινα Μπεμπεδέλη – Μαριγώ
Ειρήνη Κωνσταντίνου – Πολύμνια
Κώστας Δημητρίου – Αντζουλής
Ανδρέας Μελέκκης – Μιχαηλάς (μουχτάρης)
Ανδρέας Αργυρίδης – Χαμπής
Νεοκλής Νεοκλέους – Κυριάκος
Χριστιάνα Λάρκου – Ανδρονίκη
Βαρβάρα Χριστοφή – Γαλάτεια
Χρήστος Τουμάζου – Πετρής
Ιάκωβος Χατζηβασίλη – Στεφανής
Μάρα Κωνσταντίνου – Μαργαρίτα
Ελευθερία Ανδρέου – Φανούλλα
Πάολα Χατζηλαμπρή – Ερατώ
Βασίλης Μιχαήλ- Πολυδεύκης
Μιχάλης Τερλικκάς – Ποιητάρης
Βαλεντίνα Σοφοκλέους – Βασιλού
Χριστιάνα Θεοδώρου – Αννέτα
 
ΣΕΝΑΡΙΟ: Γιώργος Σοφοκλέους και Ελένη Καούλα
ΓΕΝΙΚΗ ΕΠΙΜΕΛΕΙΑ: Κύρος Ρωσσίδης
ΣΚΗΝΟΘΕΣΙΑ: Κώστας Κωστόπουλος και Πάρις Προκοπίου
 


[Πρέπει να είστε εγγεγραμμένοι και συνδεδεμένοι για να δείτε αυτόν το σύνδεσμο.]




[Πρέπει να είστε εγγεγραμμένοι και συνδεδεμένοι για να δείτε αυτόν το σύνδεσμο.]



   General
      Complete name :ΓΑΛΑΤΕΙΑ\GALATEIA.S02.EP.01.avi
      Format : AVI
      Format/Info : Audio Video Interleave
      File size : 998 MiB
      Duration : 51mn 2s
      Overall bit rate : 2 734 Kbps
   Video [Πρέπει να είστε εγγεγραμμένοι και συνδεδεμένοι για να δείτε αυτόν το σύνδεσμο.]
      ID : 0
      Format : AVC
      Format/Info : Advanced Video Codec
      Format profile : Baseline@L3.1
      Format settings, CABAC : No
      Format settings, ReFrames : 1 frame
      Codec ID : H264
      Duration : 51mn 2s
      Bit rate : 2 593 Kbps
      Width : 1 280 pixels
      Height : 720 pixels
      Display aspect ratio : 16:9
      Frame rate : 25.000 fps
      Color space : YUV
      Chroma subsampling : 4:2:0
      Bit depth : 8 bits
      Scan type : Progressive
      Bits/(Pixel*Frame) : 0.113
      Stream size : 947 MiB (95%)
 
   
   Audio [Πρέπει να είστε εγγεγραμμένοι και συνδεδεμένοι για να δείτε αυτόν το σύνδεσμο.]
      ID : 1
      Format : MPEG Audio
      Format version : Version 1
      Format profile : Layer 3
      Codec ID : 55
      Codec ID/Hint : MP3
      Duration : 51mn 2s
      Bit rate mode : Constant
      Bit rate : 128 Kbps
      Channel(s) : 1 channel
      Sampling rate : 44.1 KHz
      Compression mode : Lossy
      Stream size : 46.7 MiB (5%)
      Alignment : Aligned on interleaves
      Interleave, duration : 26 ms (0.65 video frame)
      Writing library : LAME3.99.5U!Υ\Y(δ‰J¤ 

[Πρέπει να είστε εγγεγραμμένοι και συνδεδεμένοι για να δείτε αυτόν το σύνδεσμο.]



[Πρέπει να είστε εγγεγραμμένοι και συνδεδεμένοι για να δείτε αυτόν το σύνδεσμο.]


[Πρέπει να είστε εγγεγραμμένοι και συνδεδεμένοι για να δείτε αυτόν το σύνδεσμο.]



[Πρέπει να είστε εγγεγραμμένοι και συνδεδεμένοι για να δείτε αυτόν το σύνδεσμο.]







Έχει επεξεργασθεί από τον/την loufjohn στις Πεμ Απρ 26, 2018 6:19 am, 114 φορές συνολικά

#2
 loufjohn


ΑΝΕΒΗΚΕ ΕΩΣ ΤΟ 21

#3
 loufjohn


ΑΝΕΒΗΚΕ ΕΩΣ ΤΟ 22

#4
 loufjohn


ΑΝΕΒΗΚΕ ΕΩΣ ΤΟ 23

#5
 loufjohn


ΑΝΕΒΗΚΕ ΕΩΣ ΤΟ 24

#6
 loufjohn


ΑΝΕΒΗΚΕ ΕΩΣ ΤΟ 25

#7
 loufjohn


ΑΝΕΒΗΚΕ ΕΩΣ 26

#8
 loufjohn


ΑΝΕΒΗΚΕ ΕΩΣ ΤΟ 27

#9
 loufjohn


ΑΝΕΒΗΚΕ ΕΩΣ ΤΟ 28

#10
 loufjohn


ΑΝΕΒΗΚΕ ΕΩΣ ΤΟ 29

#11
 loufjohn


ΑΝΕΒΗΚΕ ΕΩΣ ΤΟ 30

#12
 loufjohn


ΑΝΕΒΗΚΕ ΕΩΣ ΤΟ 31

#13
 loufjohn


ΑΝΕΒΗΚΕ ΕΩΣ ΤΟ 32

#14
 loufjohn


ΑΝΕΒΗΚΕ ΕΩΣ ΤΟ 33

#15
 loufjohn


ΑΝΕΒΗΚΕ ΕΩΣ ΤΟ 34

#16
 loufjohn


ΑΝΕΒΗΚΕ ΕΩΣ ΤΟ 35

#17
 loufjohn


ΑΝΕΒΗΚΕ ΕΩΣ ΤΟ 36

#18
 loufjohn


ΑΝΕΒΗΚΕ ΕΩΣ ΤΟ 38

#19
 loufjohn


ΑΝΕΒΗΚΕ ΕΩΣ ΤΟ 39

#20
 loufjohn


ΑΝΕΒΗΚΕ ΕΩΣ ΤΟ 40

#21
 loufjohn


ΑΝΕΒΗΚΕ ΕΩΣ 41

#22
 loufjohn


ΑΝΕΒΗΚΕ ΕΩΣ 42

#23
 loufjohn


ΑΝΕΒΗΚΕ ΕΩΣ 43

#24
 loufjohn


ΑΝΕΒΗΚΕ ΕΩΣ 44

#25
 loufjohn


ΑΝΕΒΗΚΕ ΕΩΣ ΤΟ 45

Επισκόπηση προηγούμενης Θ.Ενότητας Επισκόπηση επόμενης Θ.Ενότητας Επιστροφή στην κορυφή  Μήνυμα [Σελίδα 1 από 5]

Μετάβαση στη σελίδα : 1, 2, 3, 4, 5  Επόμενο


Δικαιώματα σας στην κατηγορία αυτή
Δεν μπορείτε να απαντήσετε στα Θέματα αυτής της Δ.Συζήτησης

Τρόποι Κοινοποίησης:
URL:
BBCode:
HTML: