Σύντομα πολλές κατηγοριες θα είναι ανοιχτές για όλους...

Μη Συνδεδεμενος Παρακαλώ συνδεθείτε ή εγγραφείτε

Επισκόπηση προηγούμενης Θ.Ενότητας Επισκόπηση επόμενης Θ.Ενότητας Πήγαινε κάτω  Μήνυμα [Σελίδα 1 από 1]

#1
 POPIKOSTAS




ALL IN A NIGHT'S WORK-ΓΙΑ ΕΝΑ ΜΙΣΟΓΥΜΝΟ ΚΟΡΙΤΣΙ (1961) DVDRip - ΞΕΧΩΡΙΣΤΟΙ ΥΠΟΤΙΤΛΟΙ



Σκηνοθεσία: Joseph Anthony
Σενάριο: Edmund Beloin , Maurice Richlin
Ηθοποιοί: Dean Martin, Shirley MacLaine, Cliff Robertson, Charles Ruggles, Norma Crane, Jack Weston, John Hudson
Είδος ταινίας: Comedy
Χώρα παραγωγής: USA

Υποτιτλισμός: savas23

Ο Dean Martin αναλαμβάνει την εταιρεία του πλούσιου θείου του αμέσως μετά το θάνατό του σε ένα ξενοδοχείο. Από του οποίου το δωμάτιο μάρτυρες είδαν να βγαίνει με... ελαφρά ενδυμασία η Shirley MacLaine. Η οποία είναι υπάλληλος της εταιρείας. Τα μπερδέματα και οι παρεξηγήσεις ξεκινάνε αμέσως, καθώς το Δ.Σ. νομίζει ότι η Shirley θα τους ζητήσει λεφτά για να μην ξεσκεπάσει το ερωτικό σκάνδαλο του θείου. Και ο νεαρός Martin θα κληθεί να αναλάβει την υπόθεση.

[video][Πρέπει να είστε εγγεγραμμένοι και συνδεδεμένοι για να δείτε αυτόν το σύνδεσμο.]



Κώδικας:
http://www.imdb.com/title/tt0054615/

ΤΕΧΝΙΚΑ ΧΑΡΑΚΤΗΡΙΣΤΙΚΑ

Σπόιλερ:

General

Complete name : All in a Night's Work (1961) WAC DVDRip x264 BBM [CG].mkv

Format : Matroska

Format version : Version 2

File size : 1.34 GiB

Duration : 1 h 34 min

Overall bit rate : 2 038 kb/s

Encoded date : UTC 2013-09-10 11:40:36

Writing application : mkvmerge v5.2.1 ('A Far Off Place') built on Jan 2 2012 23:21:10

Writing library : libebml v1.2.3 + libmatroska v1.3.0

Video

ID : 1

Format : AVC

Format/Info : Advanced Video Codec

Format profile : High@L3.1

Format settings, CABAC : Yes

Format settings, ReFrames : 9 frames

Codec ID : V_MPEG4/ISO/AVC

Duration : 1 h 34 min

Bit rate : 1 844 kb/s

Width : 704 pixels

Height : 384 pixels

Display aspect ratio : 1.85:1

Frame rate mode : Constant

Frame rate : 23.976 (24000/1001) FPS

Color space : YUV

Chroma subsampling : 4:2:0

Bit depth : 8 bits

Scan type : Progressive

Bits/(Pixel*Frame) : 0.284

Stream size : 1.19 GiB (89%)

Writing library : x264 core 120 r2164 da19765

Encoding settings : cabac=1 / ref=9 / deblock=1:0:0 / analyse=0x3:0x113 / me=hex / subme=7 / psy=1 / psy_rd=1.00:0.00 / mixed_ref=1 / me_range=16 / chroma_me=1 / trellis=1 / 8x8dct=1 / cqm=0 / deadzone=21,11 / fast_pskip=1 / chroma_qp_offset=-2 / threads=6 / sliced_threads=0 / nr=0 / decimate=1 / interlaced=0 / bluray_compat=0 / constrained_intra=0 / bframes=6 / b_pyramid=2 / b_adapt=1 / b_bias=0 / direct=1 / weightb=1 / open_gop=0 / weightp=2 / keyint=240 / keyint_min=23 / scenecut=40 / intra_refresh=0 / rc_lookahead=40 / rc=2pass / mbtree=1 / bitrate=1844 / ratetol=1.0 / qcomp=0.60 / qpmin=0 / qpmax=69 / qpstep=4 / cplxblur=20.0 / qblur=0.5 / ip_ratio=1.40 / aq=1:1.00

Language : English

Default : Yes

Forced : No

Audio

ID : 2

Format : AC-3

Format/Info : Audio Coding 3

Mode extension : CM (complete main)

Format settings, Endianness : Big

Codec ID : A_AC3

Duration : 1 h 34 min

Bit rate mode : Constant

Bit rate : 192 kb/s

Channel(s) : 2 channels

Channel positions : Front: L R

Sampling rate : 48.0 kHz

Frame rate : 31.250 FPS (1536 spf)

Compression mode : Lossy

Stream size : 129 MiB (9%)

Default : Yes

Forced : No








Επισκόπηση προηγούμενης Θ.Ενότητας Επισκόπηση επόμενης Θ.Ενότητας Επιστροφή στην κορυφή  Μήνυμα [Σελίδα 1 από 1]


Δικαιώματα σας στην κατηγορία αυτή
Δεν μπορείτε να απαντήσετε στα Θέματα αυτής της Δ.Συζήτησης

Τρόποι Κοινοποίησης:
URL:
BBCode:
HTML: