Σύντομα πολλές κατηγοριες θα είναι ανοιχτές για όλους...

Μη Συνδεδεμενος Παρακαλώ συνδεθείτε ή εγγραφείτε

Επισκόπηση προηγούμενης Θ.Ενότητας Επισκόπηση επόμενης Θ.Ενότητας Πήγαινε κάτω  Μήνυμα [Σελίδα 1 από 1]

#1
 POPIKOSTAS




I SEQUESTRATI DI ALTONA - THE CONDEMNED OF ALTONA (1962) DVDRip - ΞΕΧΩΡΙΣΤΟΙ ΥΠΟΤΙΤΛΟΙ

Σκηνοθεσία: Vittorio De Sica
Σενάριο: Abby Mann, Jean-Paul Sartre
Ηθοποιοί: Sophia Loren, Maximilian Schell, Fredric March, Robert Wagner, Francoise Prevost, Alfredo Franchi, Lucia Pelella, Roberto Massa, Antonia Cianci, Carlo Antonini, Armando Sifo, Osvaldo Peccioli, Ekkehard Schall, Gabriele Tinti, Michela Ricciardi
Είδος ταινίας: Drama, History
Χώρα παραγωγής: Italy , France

Υποτιτλισμός: Zamandy-P.Faliro-Athens.

Ο Άλμπερτ φον Γκέρλαχ, ιδιοκτήτης μιας από τις μεγαλύτερες γερμανικές εταιρίες, καλεί κοντά του τον γιο του, Βέρνερ, έναν δικηγόρο παντρεμένο με την ηθοποιό Τζοάνα. Ο γηραιός Άλμπερτ θέλει ο γιος του να αναλάβει όλες τις οικογενειακές επιχειρήσεις, μα ο γιος δεν ενδιαφέρεται, μια και γνωρίζει ότι αυτές οι επιχειρήσεις βοήθησαν να ανδρωθεί η ναζιστική πολεμική μηχανή. Μα ο Βέρνερ δεν είναι ο μόνος γιος. Υπάρχει ο μεγαλύτερος του, Φρανζ, που διεύθυνε την εταιρία κατά τον πόλεμο, συνελήφθη για εγκλήματα πολέμου και εκτελέστηκε. Ή έτσι απλά όλοι νομίζουν.

[video][Πρέπει να είστε εγγεγραμμένοι και συνδεδεμένοι για να δείτε αυτόν το σύνδεσμο.]



Κώδικας:
http://www.imdb.com/title/tt0056468/

ΤΕΧΝΙΚΑ ΧΑΡΑΚΤΗΡΙΣΤΙΚΑ

Σπόιλερ:

General

Complete name : The Condemned of Altona (1962) DVDRip XviD AC3-Tntvillage.avi

Format : AVI

Format/Info : Audio Video Interleave

File size : 1.09 GiB

Duration : 1 h 42 min

Overall bit rate : 1 535 kb/s

Writing application : VirtualDubMod 1.5.4.1 (build 2178/release)

Writing library : VirtualDubMod build 2178/release

Video

ID : 0

Format : MPEG-4 Visual

Format profile : Simple@L3

Format settings, BVOP : 1

Format settings, QPel : No

Format settings, GMC : No warppoints

Format settings, Matrix : Custom

Codec ID : XVID

Codec ID/Hint : XviD

Duration : 1 h 42 min

Bit rate : 1 336 kb/s

Width : 720 pixels

Height : 416 pixels

Display aspect ratio : 1.731

Frame rate : 25.000 FPS

Color space : YUV

Chroma subsampling : 4:2:0

Bit depth : 8 bits

Scan type : Progressive

Compression mode : Lossy

Bits/(Pixel*Frame) : 0.178

Stream size : 975 MiB (87%)

Writing library : XviD 1.1.0 Beta2 (UTC 2005-04-04)

Audio

ID : 1

Format : AC-3

Format/Info : Audio Coding 3

Mode extension : CM (complete main)

Format settings, Endianness : Big

Codec ID : 2000

Duration : 1 h 42 min

Bit rate mode : Constant

Bit rate : 192 kb/s

Channel(s) : 2 channels

Channel positions : Front: L R

Sampling rate : 48.0 kHz

Frame rate : 31.250 FPS (1536 spf)

Compression mode : Lossy

Delay relative to video : 24 ms

Stream size : 140 MiB (13%)

Alignment : Split accross interleaves

Interleave, duration : 96 ms (2.40 video frames)

Interleave, preload duration : 96 ms








Επισκόπηση προηγούμενης Θ.Ενότητας Επισκόπηση επόμενης Θ.Ενότητας Επιστροφή στην κορυφή  Μήνυμα [Σελίδα 1 από 1]


Δικαιώματα σας στην κατηγορία αυτή
Δεν μπορείτε να απαντήσετε στα Θέματα αυτής της Δ.Συζήτησης

Τρόποι Κοινοποίησης:
URL:
BBCode:
HTML: