Σύντομα πολλές κατηγοριες θα είναι ανοιχτές για όλους...

Μη Συνδεδεμενος Παρακαλώ συνδεθείτε ή εγγραφείτε

Επισκόπηση προηγούμενης Θ.Ενότητας Επισκόπηση επόμενης Θ.Ενότητας Πήγαινε κάτω  Μήνυμα [Σελίδα 1 από 1]

#1
 POPIKOSTAS




ΟΙ ΤΕΛΕΥΤΑΙΟΙ ΤΟΥ ΡΟΥΠΕΛ (1971) TVRip

Είδος Ταινίας : Πολεμική
Διάρκεια : 1h 26mn
Σκηνοθεσία : Γρηγόρης Γρηγορίου
Σενάριο : Γιάννης Μαρής
Ηθοποιοί : Χρήστος Πολίτης (Αλέξης Κομνηνός) , Βέρα Κρούσκα (Όλγα Παύλοβα) , Δημήτρης Μπισλάνης , Γιάννης Κατράνης (Κοσμάς Γεωργίου)

Άνοιξη του 1941. Μια ομάδα στρατιωτών υπό την διοίκηση του ανθυπολοχαγού Αλέξη Κομνηνού, προστατεύει τα σύνορα στο οχυρό του Ρούπελ και ετοιμάζεται να δεχτεί την επίθεση των Γερμανών. Ο αξιωματικός μαζί με τον στρατιώτη Κοσμά Γεωργίου αναλαμβάνουν αποστολή κατασκοπείας των γερμανικών δυνάμεων στη Βουλγαρία. Ο Νικήτας και η Όλγα τους βοηθούν στην αποστολή τους. Όταν επιστρέφουν γίνονται στόχος των Γερμανών ώσπου τελικά βρίσκονται στο οχυρό Ρούπελ, μαζί με τους τελευταίους υπερασπιστές του Αμύνονται γενναία αλλά τελικά παραδίδονται όταν καταρρέει το ελληνικό μέτωπο.



Κώδικας:
http://www.cine.gr/film.asp?id=701874&page=5

ΤΕΧΝΙΚΑ ΧΑΡΑΚΤΗΡΙΣΤΙΚΑ

Σπόιλερ:

General
Complete name                  : ΟΙ ΤΕΛΕΥΤΑΙΟΙ ΤΟΥ ΡΟΥΠΕΛ (1971).avi
Format                         : AVI
Format/Info                    : Audio Video Interleave
Format profile                 : OpenDML
File size                      : 1.20 GiB
Duration                       : 1 h 25 min
Overall bit rate               : 2 007 kb/s
Writing application            : Lavf57.21.100

Video
ID                             : 0
Format                         : xvid
Codec ID                       : xvid
Duration                       : 1 h 25 min
Bit rate                       : 1 798 kb/s
Width                          : 640 pixels
Height                         : 480 pixels
Display aspect ratio           : 16:9
Frame rate                     : 29.970 (30000/1001) FPS
Scan type                      : Progressive
Bits/(Pixel*Frame)             : 0.195
Stream size                    : 1.07 GiB (90%)

Audio
ID                             : 1
Format                         : MPEG Audio
Format version                 : Version 1
Format profile                 : Layer 3
Format settings                : Joint stereo / MS Stereo
Mode                           : Joint stereo
Mode extension                 : MS Stereo
Codec ID                       : 55
Codec ID/Hint                  : MP3
Duration                       : 1 h 25 min
Bit rate mode                  : Constant
Bit rate                       : 192 kb/s
Channel(s)                     : 2 channels
Sampling rate                  : 44.1 kHz
Compression mode               : Lossy
Stream size                    : 117 MiB (10%)
Alignment                      : Aligned on interleaves
Interleave, duration           : 26  ms (0.78 video frame)
Interleave, preload duration   : 26  ms








Επισκόπηση προηγούμενης Θ.Ενότητας Επισκόπηση επόμενης Θ.Ενότητας Επιστροφή στην κορυφή  Μήνυμα [Σελίδα 1 από 1]


Δικαιώματα σας στην κατηγορία αυτή
Δεν μπορείτε να απαντήσετε στα Θέματα αυτής της Δ.Συζήτησης

Τρόποι Κοινοποίησης:
URL:
BBCode:
HTML: