Σύντομα πολλές κατηγοριες θα είναι ανοιχτές για όλους...

Μη Συνδεδεμενος Παρακαλώ συνδεθείτε ή εγγραφείτε

Επισκόπηση προηγούμενης Θ.Ενότητας Επισκόπηση επόμενης Θ.Ενότητας Πήγαινε κάτω  Μήνυμα [Σελίδα 1 από 1]

#1
 POPIKOSTAS




THE MAN FROM ELYSIAN FIELDS - ΣΥΝΟΔΟΣ ΚΥΡΙΩΝ (2001) DVDRip - ΕΝΣΩΜΑΤΩΜΕΝΟΙ ΥΠΟΤΙΤΛΟΙ

Σκηνοθεσία: George Hickenlooper
Σενάριο: Phillip Jayson Lasker
Ηθοποιοί:  Andy Garcia, Mick Jagger, Julianna Margulies, Olivia Williams, James Coburn, Michael Des Barres, Richard Bradford, Anjelica Huston
Μουσική: Anthony Marinelli 
Φωτογραφία: Kramer Morgenthau
Μοντάζ: Michael Brown
Έτος: 2001
Διάρκεια: 01:41:14
Είδος:  Drama, Romance
Χώρα: ΗΠΑ
Γλώσσα: Αγγλικά
Υπότιτλοι: Ελληνικά, ενσωματωμένοι στο container και σε αρχείο srt, από το original DVD
Χρώμα: Έγχρωμο
DVDRip, SubRip, Προσαρμογή-Συγχρονισμός: Lafistios
Source: PAL DVD5

ΥΠΟΘΕΣΗ

Ο Byron Tiller είναι ένας φιλόδοξος νέος συγγραφέας. Όταν το μυθιστόρημά του δεν επιλέγεται προς έκδοση από τον εκδότη του, εκείνος θα βρεθεί άνεργος και στριμωγμένος. Δεν τον δέχονται ούτε στην παλιά δουλεία του, σαν διαφημιστή οδηγώντας τον έτσι σε αδιέξοδο για να συντηρήσει την οικογένειά του και τα όνειρα για την καριέρα του. Όταν ο Luther Fox, επικεφαλής ενός γραφείου συνοδών υψηλού επιπέδου για μοναχικές κυρίες, τον προσεγγίζει εκείνος δεν θα δυσκολευτεί να πειστεί. Ξεκινά να προσφέρει τις υπηρεσίες του καταλήγοντας να γίνει μόνιμος συνοδός της όμορφης αλλά μοναχικής συζύγου του διάσημου ηλικιωμένου συγγραφέα Tobias Alcott. Ο πολυβραβευμένος Alcott υποστηρίζει τη σχέση της γυναίκας του με τον Byron. Φτάνει στο σημείο να ζητήσει τη βοήθειά του για να ολοκληρώσει ένα μυθιστόρημα που ίσως είναι και το τελευταίο του

[video][Πρέπει να είστε εγγεγραμμένοι και συνδεδεμένοι για να δείτε αυτόν το σύνδεσμο.]



Κώδικας:
http://www.imdb.com/title/tt0265307/

ΤΕΧΝΙΚΑ ΧΑΡΑΚΤΗΡΙΣΤΙΚΑ

Σπόιλερ:

General
Complete name                            : The Man from Elysian Fields.2001.DVDRip.x264.AC3.mkv
Format                                   : Matroska
Format version                           : Version 4 / Version 2
File size                                : 1.53 GiB
Duration                                 : 1h 41mn
Overall bit rate                         : 2 163 Kbps
Encoded date                             : UTC 2017-10-09T15:20:38Z
Writing application                      : HandBrake 1.0.7 2017040900
Writing library                          : Lavf57.7.2

Video
ID                                       : 1
Format                                   : AVC
Format/Info                              : Advanced Video Codec
Format profile                           : High@L4.1
Format settings                          : CABAC / 4 Ref Frames
Format settings, CABAC                   : Yes
Format settings, ReFrames                : 4 frames
Codec ID                                 : V_MPEG4/ISO/AVC
Duration                                 : 1h 41mn
Bit rate                                 : 1 900 Kbps
Width                                    : 704 pixels
Height                                   : 528 pixels
Display aspect ratio                     : 4:3
Frame rate mode                          : Constant
Frame rate                               : 25.000 fps
Color space                              : YUV
Chroma subsampling                       : 4:2:0
Bit depth                                : 8 bits
Scan type                                : Progressive
Bits/(Pixel*Frame)                       : 0.204
Stream size                              : 1.32 GiB (86%)
Writing library                          : x264 core 148 r2708 86b7198
Default                                  : Yes
Forced                                   : No
Color range                              : Limited
Color primaries                          : BT.601 PAL
Transfer characteristics                 : BT.709
Matrix coefficients                      : BT.601

Audio
ID                                       : 2
Format                                   : AC-3
Format/Info                              : Audio Coding 3
Format settings, Endianness              : Big
Codec ID                                 : A_AC3
Duration                                 : 1h 41mn
Bit rate mode                            : Constant
Bit rate                                 : 256 Kbps
Channel(s)                               : 2 channels
Channel positions                        : Front: L R
Sampling rate                            : 48.0 KHz
Frame rate                               : 31.250 fps (1536 SPF)
Bit depth                                : 16 bits
Compression mode                         : Lossy
Stream size                              : 185 MiB (12%)
Title                                    : Stereo
Language                                 : English
Service kind                             : Complete Main
Default                                  : Yes
Forced                                   : No

Text
ID                                       : 3
Format                                   : VobSub
Codec ID                                 : S_VOBSUB
Codec ID/Info                            : Picture based subtitle format used on DVDs
Language                                 : Greek
Default                                  : Yes
Forced                                   : Yes








Επισκόπηση προηγούμενης Θ.Ενότητας Επισκόπηση επόμενης Θ.Ενότητας Επιστροφή στην κορυφή  Μήνυμα [Σελίδα 1 από 1]


Δικαιώματα σας στην κατηγορία αυτή
Δεν μπορείτε να απαντήσετε στα Θέματα αυτής της Δ.Συζήτησης

Τρόποι Κοινοποίησης:
URL:
BBCode:
HTML: