Σύντομα πολλές κατηγοριες θα είναι ανοιχτές για όλους...

Μη Συνδεδεμενος Παρακαλώ συνδεθείτε ή εγγραφείτε

Επισκόπηση προηγούμενης Θ.Ενότητας Επισκόπηση επόμενης Θ.Ενότητας Πήγαινε κάτω  Μήνυμα [Σελίδα 1 από 1]

#1
 loufjohn


ΕΛΛΗΝΟΦΡΕΝΕΙΑ ALPHA ΤV WEBRip  (2017-18)





[Πρέπει να είστε εγγεγραμμένοι και συνδεδεμένοι για να δείτε αυτόν το σύνδεσμο.]

Φάγαμε την καμήλα και μας έμεινε μόνο η ουρά… Η κλασική αυτή ελληνική παροιμία ισχύει στην περίπτωση της «Ελληνοφρένειας»,
της οποίας ο χρόνος εμφάνισης στις τηλεοπτικές οθόνες μετρά αντίστροφα.
 
Μερικά χιλιόμετρα από την κορυφή του Υμηττού, γήινοι… μάλλον, συντελεστές, προετοιμάζουν την αλλαγή ταυτότητας της εκπομπής.
Στο πλαίσιο αυτής της αλλαγής,
η «Ελληνοφρένεια», φέτος, προβάλλεται μία φορά την εβδομάδα, κάθε Τρίτη στις 23:00.
 
Στο περιεχόμενο, οι αλλαγές περιλαμβάνουν:
Νέο αναβαθμισμένο ρόλο του Τσολιά, με συνεντεύξεις σε πρόσωπα της πολιτικής - καλλιτεχνικής ζωής αλλά και στοχευμένες εξορμήσεις του στους δρόμους της Αθήνας.
 
Νέο υποβαθμισμένο ρόλο του Μπαλούρδου, στο τηλεοπτικό κανάλι, μιας και οι στενές σχέσεις του με το Μέγαρο Μαξίμου
περνούν σε φάση έντονης κρίσης και πολεμικής αντιπαράθεσης.
 
Νέα διαβαθμισμένη σχέση Μπαλούρδου - Τσολιά, μιας και οι δυο τους μπαίνουν σε φάση «εμφυλίου» πολέμου για τη δημοσιογραφική καταξίωση
και ανέλιξη στον ανταγωνιστικό κόσμο της τηλεόρασης.
 
Αιφνιδιαστικές επισκέψεις σε κομβικά σημεία όπου χτυπά η καρδιά της κοινωνικής και πολιτικής επικαιρότητας, με επιτόπια ρεπορτάζ,
από επιτόπιο και δαιμόνιο ρεπόρτερ. Πάντα επιτόπου.
 
Ανατρεπτικά βίντεο, καλεσμένοι έκπληξη, πρόσωπα και απρόσωπα της επικαιρότητας, σαρδάμ, αριστερά ψέματα, δεξιές υποσχέσεις,
λαϊκές ματαιοδοξίες, λαϊκές αυταπάτες, δαίμονες και ιδέες έμμονες.
 
Επίσης, οι αλλαγές που πρότεινε ο εξωγήινος του Υμηττού, μεταξύ άλλων περιλαμβάνουν:
Τον Αλέξη Τσίπρα, στον ρόλο του αριστερού. Τον Κυριάκο Μητσοτάκη, στον ρόλο του φιλελεύθερου. Τον Βασίλη Λεβέντη, στον ρόλο του θεοσεβούμενου.
Τον Άδωνη, στον ρόλο του πράου. Τον Τσακαλώτο, στον ρόλο του φιλέλληνα. Την Φώφη Γεννηματά, στον ρόλο της κεντροαριστεράς. Την κεντροαριστερά,
στον ρόλο της Φώφης. Την Ζακέτα να πάρεις.
Τη διαπλοκή, στον ρόλο των ΜΜΕ. Τον Καμίνη, δήμαρχο. Το ευρώ, στην τσέπη λίγων.
Τον ΕΝΦΙΑ, στον ρόλο σπιτονοικοκύρη. Την τηλεόραση, στον ρόλο της σοβαρής.
Τη δημοσιογραφία, στον ρόλο της αντικειμενικής. Τον ελληνικό λαό, στον ρόλο του κυρίαρχου. Την «Ελληνοφρένεια», στον ρόλο του καθρέφτη και τα «περαστικά»,
την σωστότερη ευχή της εποχής.

[Πρέπει να είστε εγγεγραμμένοι και συνδεδεμένοι για να δείτε αυτόν το σύνδεσμο.]



[Πρέπει να είστε εγγεγραμμένοι και συνδεδεμένοι για να δείτε αυτόν το σύνδεσμο.]




   General
      Complete name :ΕΛΛΗΝΟΦΡΕΝΕΙΑ\FRENA.EP.01.avi
      Format : AVI
      Format/Info : Audio Video Interleave
      File size : 952 MiB
      Duration : 47 min 23 s
      Overall bit rate : 2 810 kb/s
   Video [Πρέπει να είστε εγγεγραμμένοι και συνδεδεμένοι για να δείτε αυτόν το σύνδεσμο.]
      ID : 0
      Format : AVC
      Format/Info : Advanced Video Codec
      Format profile : Baseline@L3
      Format settings, CABAC : No
      Format settings, ReFrames : 1 frame
      Codec ID : H264
      Duration : 47 min 23 s
      Bit rate : 2 669 kb/s
      Width : 640 pixels
      Height : 352 pixels
      Display aspect ratio : 16:9
      Frame rate : 25.000 FPS
      Color space : YUV
      Chroma subsampling : 4:2:0
      Bit depth : 8 bits
      Scan type : Progressive
      Bits/(Pixel*Frame) : 0.474
      Stream size : 904 MiB (95%)
      Writing library : x264 core 146 r2538 121396c
    
   Audio [Πρέπει να είστε εγγεγραμμένοι και συνδεδεμένοι για να δείτε αυτόν το σύνδεσμο.]
      ID : 1
      Format : MPEG Audio
      Format version : Version 1
      Format profile : Layer 3
      Codec ID : 55
      Codec ID/Hint : MP3
      Duration : 47 min 23 s
      Bit rate mode : Constant
      Bit rate : 128 kb/s
      Channel(s) : 2 channels
      Sampling rate : 44.1 kHz
      Compression mode : Lossy
      Stream size : 43.4 MiB (5%)
      Alignment : Aligned on interleaves
      Interleave, duration : 26  ms (0.65 video frame) 

[Πρέπει να είστε εγγεγραμμένοι και συνδεδεμένοι για να δείτε αυτόν το σύνδεσμο.]


[Πρέπει να είστε εγγεγραμμένοι και συνδεδεμένοι για να δείτε αυτόν το σύνδεσμο.]


[Πρέπει να είστε εγγεγραμμένοι και συνδεδεμένοι για να δείτε αυτόν το σύνδεσμο.]



[Πρέπει να είστε εγγεγραμμένοι και συνδεδεμένοι για να δείτε αυτόν το σύνδεσμο.]







Έχει επεξεργασθεί από τον/την loufjohn στις Πεμ Δεκ 14, 2017 7:10 am, 4 φορές συνολικά

#2
 loufjohn


ΑΝΕΒΗΚΕ ΕΩΣ 02

#3
 loufjohn


ΑΝΕΒΗΚΕ ΕΩΣ ΤΟ 03

#4
 loufjohn


ΑΝΕΒΗΚΕ ΕΩΣ 04

#5
 loufjohn


ΑΝΕΒΗΚΕ ΕΩΣ 05

Επισκόπηση προηγούμενης Θ.Ενότητας Επισκόπηση επόμενης Θ.Ενότητας Επιστροφή στην κορυφή  Μήνυμα [Σελίδα 1 από 1]


Δικαιώματα σας στην κατηγορία αυτή
Δεν μπορείτε να απαντήσετε στα Θέματα αυτής της Δ.Συζήτησης

Τρόποι Κοινοποίησης:
URL:
BBCode:
HTML: