Σύντομα πολλές κατηγοριες θα είναι ανοιχτές για όλους...

Μη Συνδεδεμενος Παρακαλώ συνδεθείτε ή εγγραφείτε

Επισκόπηση προηγούμενης Θ.Ενότητας Επισκόπηση επόμενης Θ.Ενότητας Πήγαινε κάτω  Μήνυμα [Σελίδα 1 από 1]

#1
 POPIKOSTAS




BAND OF ANGELS (1957) DVDRip - SOFILMACOS - ΞΕΧΩΡΙΣΤΟΙ ΥΠΟΤΙΤΛΟΙ



Σκηνοθεσία: Raoul Walsh
Σενάριο: Robert Penn Warren , John Twist
Ηθοποιοί: Clark Gable, Patric Knowles, Torin Thatcher, Ray Teal, Yvonne De Carlo, Andrea King, Efrem Zimbalist Jr., Sidney Poitier, Rex Reason, Raymond Bailey, Carolle Drake, Russell Evans, Tommie Moore
Είδος ταινίας: Drama, History, Romance |
Χώρα παραγωγής: USA

Υποτιτλισμός: ΧΑΡΗΣ Ι

Το 1853 στο Κεντάκι, η όμορφη Αμάνθα Σταρ ζει ορφανή από μητέρα στη φυτεία του πλούσιου πατέρα της. Όταν όμως ο πατέρας της πεθαίνει, αποκαλύπτεται ότι έχει πτωχεύσει και η περιουσία του περνάει στα χέρια του δανειστή του, ενός έμπορου σκλάβων, και το χειρότερο πως η μητέρα της ήταν νέγρα, και σύμφωνα με τον νόμο ανήκε και η Αμάνθα στον νέο ιδιοκτήτη της φυτείας…

[video][Πρέπει να είστε εγγεγραμμένοι και συνδεδεμένοι για να δείτε αυτόν το σύνδεσμο.]



Κώδικας:
http://www.imdb.com/title/tt0050166/

ΤΕΧΝΙΚΑ ΧΑΡΑΚΤΗΡΙΣΤΙΚΑ

Σπόιλερ:

General

Complete name : Band of Angels 1957 DVDRip DivX SOFILMACOS.avi

Format : AVI

Format/Info : Audio Video Interleave

Format profile : OpenDML

File size : 1.39 GiB

Duration : 2 h 7 min

Overall bit rate : 1 563 kb/s

Writing application : MEncoder SVN-r33883(20110719-gcc4.5.2)

Writing library : MPlayer

Video

ID : 0

Format : MPEG-4 Visual

Format profile : Advanced Simple@L5

Format settings, BVOP : 2

Format settings, QPel : No

Format settings, GMC : No warppoints

Format settings, Matrix : Default (H.263)

Codec ID : XVID

Codec ID/Hint : XviD

Duration : 2 h 7 min

Bit rate : 1 422 kb/s

Width : 712 pixels

Height : 400 pixels

Display aspect ratio : 16:9

Frame rate : 23.976 (23976/1000) FPS

Color space : YUV

Chroma subsampling : 4:2:0

Bit depth : 8 bits

Scan type : Progressive

Compression mode : Lossy

Bits/(Pixel*Frame) : 0.208

Stream size : 1.26 GiB (91%)

Writing library : XviD 1.2.1 (UTC 2008-12-04)

Audio

ID : 1

Format : MPEG Audio

Format version : Version 1

Format profile : Layer 3

Mode : Joint stereo

Mode extension : MS Stereo

Codec ID : 55

Codec ID/Hint : MP3

Duration : 2 h 7 min

Bit rate mode : Constant

Bit rate : 128 kb/s

Channel(s) : 2 channels

Sampling rate : 44.1 kHz

Compression mode : Lossy

Delay relative to video : 42 ms

Stream size : 117 MiB (8%)

Alignment : Aligned on interleaves

Interleave, duration : 26 ms (0.63 video frame)

Interleave, preload duration : 522 ms

Writing library : LAME3.98.4








Επισκόπηση προηγούμενης Θ.Ενότητας Επισκόπηση επόμενης Θ.Ενότητας Επιστροφή στην κορυφή  Μήνυμα [Σελίδα 1 από 1]


Δικαιώματα σας στην κατηγορία αυτή
Δεν μπορείτε να απαντήσετε στα Θέματα αυτής της Δ.Συζήτησης

Τρόποι Κοινοποίησης:
URL:
BBCode:
HTML: