Σύντομα πολλές κατηγοριες θα είναι ανοιχτές για όλους...

Μη Συνδεδεμενος Παρακαλώ συνδεθείτε ή εγγραφείτε

Επισκόπηση προηγούμενης Θ.Ενότητας Επισκόπηση επόμενης Θ.Ενότητας Πήγαινε κάτω  Μήνυμα [Σελίδα 1 από 1]

#1
 POPIKOSTAS




A SHOT IN THE DARK (1964) DVDRip - ΕΝΣΩΜΑΤΩΜΕΝΟΙ ΥΠΟΤΙΤΛΟΙ




Μεταφρασμένος Τίτλος: Λαγωνικό 24 Καρατίων
Πρωτότυπος Τίτλος: A Shot in the Dark
Διάρκεια: 102'
Είδος: Κωμωδία
Σκηνοθεσία: Μπλέικ Έντουαρντς
Παραγωγή: Μπλέικ Έντουαρντς 1964
Σενάριο: Μπλέικ Έντουαρντς & Ουίλλιαμ Πίτερ Μπλάττυ (κινηματογραφικό έργο)
Πρωταγωνιστές: Πίτερ Σέλερς , Χέρμπερτ Λομ, Ελκε Σόμμερ
Μουσική: Χένρυ Μαντσίνι
Υπότιτλοι: Ελληνικοί (από το original dvd)

Το Λαγωνικό 24 Καρατίων είναι μία αμερικανική ταινία, παραγωγής του Μπλέικ Έντουαρντς που προβλήθηκε το 1964. Πρωταγωνιστής της ταινίας είναι ο Πίτερ Σέλερς, που υποδύεται τον γκαφατζή Επιθεωρητή Κλουζώ. Είναι η δεύτερη κινηματογραφική επιτυχία της σειράς Ροζ Πάνθηρας .
Ο απίθανος Επιθεωρητής Κλουζό αναλαμβάνει την υπόθεση της Μαρίας Γκαμπρέλι, η οποία κατηγορείται για τη δολοφονία του εραστή της. O Κλουζό πεπεισμένος για την αθωότητα της, προσπερνάει με μεγάλη άνεση όλα τα στοιχεία της που αποδεικνύουν μπροστά στα μάτια του την ενοχή της, δημιουργώντας ψυχολογικά προβλήματα στον ταλαιπωρημένο Κομισάριο Ντρέυφους.

[video][Πρέπει να είστε εγγεγραμμένοι και συνδεδεμένοι για να δείτε αυτόν το σύνδεσμο.]



Κώδικας:
http://www.imdb.com/title/tt0058586/

ΤΕΧΝΙΚΑ ΧΑΡΑΚΤΗΡΙΣΤΙΚΑ

Σπόιλερ:

Format : MPEG-4

Format profile : Base Media / Version 2

Codec ID : mp42 (isom/iso2/avc1/mp41)

File size : 1.13 GiB

Duration : 1 h 38 min

Overall bit rate : 1 653 kb/s

Encoded date : UTC 2017-11-12 05:58:43

Tagged date : UTC 2017-11-12 05:58:43

Writing application : HandBrake 1.0.7 2017040900

Video

ID : 1

Format : AVC

Format/Info : Advanced Video Codec

Format profile : High@L4.1

Format settings, CABAC : Yes

Format settings, ReFrames : 4 frames

Codec ID : avc1

Codec ID/Info : Advanced Video Coding

Duration : 1 h 38 min

Bit rate : 1 200 kb/s

Width : 672 pixels

Height : 288 pixels

Display aspect ratio : 2.35:1

Frame rate mode : Constant

Frame rate : 25.000 FPS

Color space : YUV

Chroma subsampling : 4:2:0

Bit depth : 8 bits

Scan type : Progressive

Bits/(Pixel*Frame) : 0.248

Stream size : 843 MiB (73%)

Writing library : x264 core 148 r2708 86b7198

Encoding settings : cabac=1 / ref=3 / deblock=1:0:0 / analyse=0x3:0x113 / me=hex / subme=7 / psy=1 / psy_rd=1.00:0.00 / mixed_ref=1 / me_range=16 / chroma_me=1 / trellis=1 / 8x8dct=1 / cqm=0 / deadzone=21,11 / fast_pskip=1 / chroma_qp_offset=-2 / threads=3 / lookahead_threads=1 / sliced_threads=0 / nr=0 / decimate=1 / interlaced=0 / bluray_compat=0 / constrained_intra=0 / bframes=3 / b_pyramid=2 / b_adapt=1 / b_bias=0 / direct=1 / weightb=1 / open_gop=0 / weightp=2 / keyint=250 / keyint_min=25 / scenecut=40 / intra_refresh=0 / rc_lookahead=40 / rc=abr / mbtree=1 / bitrate=1200 / ratetol=1.0 / qcomp=0.60 / qpmin=0 / qpmax=69 / qpstep=4 / vbv_maxrate=62500 / vbv_bufsize=78125 / nal_hrd=none / filler=0 / ip_ratio=1.40 / aq=1:1.00

Encoded date : UTC 2017-11-12 05:58:43

Tagged date : UTC 2017-11-12 05:58:43

Color range : Limited

Color primaries : BT.601 PAL

Transfer characteristics : BT.709

Matrix coefficients : BT.601

Audio

ID : 2

Format : AC-3

Format/Info : Audio Coding 3

Mode extension : CM (complete main)

Format settings, Endianness : Big

Codec ID : ac-3

Duration : 1 h 38 min

Bit rate mode : Constant

Bit rate : 448 kb/s

Channel(s) : 6 channels

Channel positions : Front: L C R, Side: L R, LFE

Sampling rate : 48.0 kHz

Frame rate : 31.250 FPS (1536 spf)

Bit depth : 16 bits

Compression mode : Lossy

Stream size : 314 MiB (27%)

Title : Surround / Surround

Default : Yes

Alternate group : 1

Encoded date : UTC 2017-11-12 05:58:43

Tagged date : UTC 2017-11-12 05:58:43








Επισκόπηση προηγούμενης Θ.Ενότητας Επισκόπηση επόμενης Θ.Ενότητας Επιστροφή στην κορυφή  Μήνυμα [Σελίδα 1 από 1]


Δικαιώματα σας στην κατηγορία αυτή
Δεν μπορείτε να απαντήσετε στα Θέματα αυτής της Δ.Συζήτησης

Τρόποι Κοινοποίησης:
URL:
BBCode:
HTML: