Σύντομα πολλές κατηγοριες θα είναι ανοιχτές για όλους...

Μη Συνδεδεμενος Παρακαλώ συνδεθείτε ή εγγραφείτε

Επισκόπηση προηγούμενης Θ.Ενότητας Επισκόπηση επόμενης Θ.Ενότητας Πήγαινε κάτω  Μήνυμα [Σελίδα 1 από 1]

#1
 POPIKOSTAS




TOMORROW IS ANOTHER DAY (1951) DVDRip x264-HANDJOB - ΞΕΧΩΡΙΣΤΟΙ ΥΠΟΤΙΤΛΟΙ

Σκηνοθεσία: Felix E. Feist
Σενάριο: Art Cohn , Guy Endore
Ηθοποιοί: Ruth Roman, Steve Cochran, Lurene Tuttle, Ray Teal, Morris Ankrum, John Kellogg, Lee Patrick, Hugh Sanders
Είδος ταινίας: Crime, Drama, Film-Noir
Χώρα παραγωγής: USA

Υποτιτλισμός: ΧΡΗΣΤΟΣ

Ο κατάδικος Bill Clark ( Steve Cochran ) βγαίνει μετά από δεκαοκτώ χρόνια από τη φυλακή και συναντά έναν εντελώς αλλαγμένο κόσμο. Προσπαθώντας να προσαρμοστεί στη νέα του ζωή, βρίσκεται ένα βράδυ να χορεύει σε ένα γειτονικό μαγαζί, και εκεί γνωρίζει την Catherine Higgins (Ruth Roman). Αφού την πολιορκήσει αδέξια, ένα βράδυ ανεβαίνει τυχαία στο σπίτι της, όπου την περιμένει ο υπαστυνόμος που την συντηρεί οικονομικά. Γίνεται συμπλοκή, ο Bill λιποθυμά και η Cay (Catherine) πυροβολεί θανάσιμα τον αστυνομικό.

Ωστόσο, δεν το αποκαλύπτει στον Bill και τον αφήνει να πιστεύει πως το έκανε ο ίδιος. Το σκάνε λαθραία από την πολιτεία όπου αλλάζουν τα ονόματά τους και παντρεύονται. Μια μέρα συναντούν ένα ζευγάρι τους Dawson οι οποίοι τους προσκαλούν να έρθουν μαζί τους στη συγκομιδή των λάχανων και να εργαστούν εκεί. Ενώ η ζωή τους κυλά όμορφα και η Cay μένει έγκυος, ο μικρός γιος των Dawson βλέπει τη φωτογραφία του Bill σε ένα περιοδικό και έτσι αρχίζουν να κινούνται υποψίες.

Το ζευγάρι των Dawson μετεωρίζεται ανάμεσα στο αν πρέπει να καταδώσει τον Bill για τα εύρετρα, ωστόσο μετά από ένα ατύχημα που είχε ο σύζυγος της Henry (Ray Teal) η Stella ( Lurene Tuttle) καλεί την αστυνομία. Όταν οδηγηθούν στο τμήμα, το ζευγάρι ανακαλύπτει πως ο υπαστυνόμος πριν πεθάνει είχε ομολογήσει πως η Cay τον πυροβόλησε σε αυτοάμυνα, και έτσι η υπόθεση κλείνει.

[video=youtube;IlE4DwGBLC0][Πρέπει να είστε εγγεγραμμένοι και συνδεδεμένοι για να δείτε αυτόν το σύνδεσμο.]



Κώδικας:
http://www.imdb.com/title/tt0044136/

ΤΕΧΝΙΚΑ ΧΑΡΑΚΤΗΡΙΣΤΙΚΑ

Σπόιλερ:

General

Complete name : Tomorrow.is.Another.Day.1951.DVDRip.x264-HANDJOB.mkv

Format : Matroska

Format version : Version 4 / Version 2

File size : 1.24 GiB

Duration : 1 h 31 min

Overall bit rate : 1 949 kb/s

Encoded date : UTC 2015-12-05 23:02:10

Writing application : mkvmerge v8.6.1 ('Flying') 64bit

Writing library : libebml v1.3.3 + libmatroska v1.4.4

Video

ID : 1

Format : AVC

Format/Info : Advanced Video Codec

Format profile : High@L3.1

Format settings, CABAC : Yes

Format settings, ReFrames : 9 frames

Codec ID : V_MPEG4/ISO/AVC

Duration : 1 h 31 min

Bit rate : 1 755 kb/s

Width : 718 pixels

Height : 476 pixels

Display aspect ratio : 4:3

Original display aspect ratio : 4:3

Frame rate mode : Constant

Frame rate : 23.976 (24000/1001) FPS

Color space : YUV

Chroma subsampling : 4:2:0

Bit depth : 8 bits

Scan type : Progressive

Bits/(Pixel*Frame) : 0.214

Stream size : 1.12 GiB (90%)

Writing library : x264 core 142 r2479 dd79a61

Encoding settings : cabac=1 / ref=9 / deblock=1👎-1 / analyse=0x3:0x113 / me=umh / subme=7 / psy=1 / psy_rd=1.00:0.00 / mixed_ref=1 / me_range=24 / chroma_me=1 / trellis=2 / 8x8dct=1 / cqm=0 / deadzone=21,11 / fast_pskip=0 / chroma_qp_offset=-2 / threads=18 / lookahead_threads=3 / sliced_threads=0 / nr=0 / decimate=1 / interlaced=0 / bluray_compat=0 / constrained_intra=0 / bframes=5 / b_pyramid=2 / b_adapt=1 / b_bias=0 / direct=3 / weightb=1 / open_gop=0 / weightp=2 / keyint=240 / keyint_min=24 / scenecut=40 / intra_refresh=0 / rc_lookahead=50 / rc=crf / mbtree=1 / crf=19.0 / qcomp=0.60 / qpmin=0 / qpmax=69 / qpstep=4 / ip_ratio=1.40 / aq=1:1.00

Default : Yes

Forced : No

Color range : Limited

Color primaries : BT.601 NTSC

Transfer characteristics : BT.709

Matrix coefficients : BT.601

Audio

ID : 2

Format : AC-3

Format/Info : Audio Coding 3

Mode extension : CM (complete main)

Format settings, Endianness : Big

Codec ID : A_AC3

Duration : 1 h 31 min

Bit rate mode : Constant

Bit rate : 192 kb/s

Channel(s) : 2 channels

Channel positions : Front: L R

Sampling rate : 48.0 kHz

Frame rate : 31.250 FPS (1536 spf)

Compression mode : Lossy

Stream size : 125 MiB (10%)

Language : English

Default : Yes

Forced : No

Text [Πρέπει να είστε εγγεγραμμένοι και συνδεδεμένοι για να δείτε αυτόν το σύνδεσμο.]

ID : 3

Format : UTF-8

Codec ID : S_TEXT/UTF8

Codec ID/Info : UTF-8 Plain Text

Duration : 1 h 28 min

Bit rate : 46 b/s

Count of elements : 1161

Stream size : 29.9 KiB (0%)

Language : English

Default : No

Forced : No

Text [Πρέπει να είστε εγγεγραμμένοι και συνδεδεμένοι για να δείτε αυτόν το σύνδεσμο.]

ID : 4

Format : UTF-8

Codec ID : S_TEXT/UTF8

Codec ID/Info : UTF-8 Plain Text

Duration : 1 h 30 min

Bit rate : 38 b/s

Count of elements : 882

Stream size : 25.8 KiB (0%)

Language : French

Default : No

Forced : No

Text [Πρέπει να είστε εγγεγραμμένοι και συνδεδεμένοι για να δείτε αυτόν το σύνδεσμο.]

ID : 5

Format : UTF-8

Codec ID : S_TEXT/UTF8

Codec ID/Info : UTF-8 Plain Text

Duration : 1 h 28 min

Bit rate : 49 b/s

Count of elements : 1164

Stream size : 32.3 KiB (0%)

Language : Spanish

Default : No

Forced : No








Επισκόπηση προηγούμενης Θ.Ενότητας Επισκόπηση επόμενης Θ.Ενότητας Επιστροφή στην κορυφή  Μήνυμα [Σελίδα 1 από 1]


Δικαιώματα σας στην κατηγορία αυτή
Δεν μπορείτε να απαντήσετε στα Θέματα αυτής της Δ.Συζήτησης

Τρόποι Κοινοποίησης:
URL:
BBCode:
HTML: