Σύντομα θα επιστρέψουμε δυναμικά με νέα θέματα καθημερινά και ακόμα περισσότερους συνδέσμους! Και πολλά παραπάνω για τους VIP.

Μη Συνδεδεμενος Παρακαλώ συνδεθείτε ή εγγραφείτε

Επισκόπηση προηγούμενης Θ.Ενότητας Επισκόπηση επόμενης Θ.Ενότητας Πήγαινε κάτω  Μήνυμα [Σελίδα 1 από 1]

#1
 loufjohn


ΡΑΔΙΟ ΑΡΒΥΛΑ 11ος ΚΥΚΛΟΣ WEBRip (ΑΝΤ1 2017-) 

ΡΑΔΙΟ ΑΡΒΥΛΑ 11ος ΚΥΚΛΟΣ WEBRip (ΑΝΤ1 2017-) ΕΠ.ΕΠΕΤΕΙΑΚΟ L2U09osl



ΡΑΔΙΟ ΑΡΒΥΛΑ 11ος ΚΥΚΛΟΣ WEBRip (ΑΝΤ1 2017-) ΕΠ.ΕΠΕΤΕΙΑΚΟ IaXZX9E



ΥΠΟΘΕΣΗ

Για 11η τηλεοπτική της σεζόν, η εκπομπή του Αντώνη Κανάκη, με τον Γιάννη Σερβετά, τον Χρήστο Κιούση και τον Στάθη Παναγιωτόπουλο βρίσκεται στον αέρα,
με τη μορφή και τη συχνότητα ενός τηλεοπτικού special event.


ΡΑΔΙΟ ΑΡΒΥΛΑ 11ος ΚΥΚΛΟΣ WEBRip (ΑΝΤ1 2017-) ΕΠ.ΕΠΕΤΕΙΑΚΟ 6KTXyhc

ΡΑΔΙΟ ΑΡΒΥΛΑ 11ος ΚΥΚΛΟΣ WEBRip (ΑΝΤ1 2017-) ΕΠ.ΕΠΕΤΕΙΑΚΟ MtAPXs1l

ΡΑΔΙΟ ΑΡΒΥΛΑ 11ος ΚΥΚΛΟΣ WEBRip (ΑΝΤ1 2017-) ΕΠ.ΕΠΕΤΕΙΑΚΟ SNfCVWD



   General
      Complete name :ARBILA.S11.EP.01.avi
      Format : AVI
      Format/Info : Audio Video Interleave
      File size : 1.29 GiB
      Duration : 1 h 33 min
      Overall bit rate : 1 983 kb/s
   Video [Πρέπει να είστε εγγεγραμμένοι και συνδεδεμένοι για να δείτε αυτόν το σύνδεσμο.]
      ID : 0
      Format : AVC
      Format/Info : Advanced Video Codec
      Format profile : Baseline@L3
      Format settings, CABAC : No
      Format settings, ReFrames : 1 frame
      Codec ID : H264
      Duration : 1 h 33 min
      Bit rate : 1 842 kb/s
      Width : 640 pixels
      Height : 360 pixels
      Display aspect ratio : 16:9
      Frame rate : 25.000 FPS
      Color space : YUV
      Chroma subsampling : 4:2:0
      Bit depth : 8 bits
      Scan type : Progressive
      Bits/(Pixel*Frame) : 0.320
      Stream size : 1.20 GiB (93%)
      Writing library : x264 core 146 r2538 121396c
   
   Audio [Πρέπει να είστε εγγεγραμμένοι και συνδεδεμένοι για να δείτε αυτόν το σύνδεσμο.]
      ID : 1
      Format : MPEG Audio
      Format version : Version 1
      Format profile : Layer 3
      Codec ID : 55
      Codec ID/Hint : MP3
      Duration : 1 h 33 min
      Bit rate mode : Constant
      Bit rate : 128 kb/s
      Channel(s) : 2 channels
      Sampling rate : 44.1 kHz
      Compression mode : Lossy
      Stream size : 85.5 MiB (6%)
      Alignment : Aligned on interleaves
      Interleave, duration : 26  ms (0.65 video frame)
 
 
ΡΑΔΙΟ ΑΡΒΥΛΑ 11ος ΚΥΚΛΟΣ WEBRip (ΑΝΤ1 2017-) ΕΠ.ΕΠΕΤΕΙΑΚΟ 2V9nbDH




ΡΑΔΙΟ ΑΡΒΥΛΑ 11ος ΚΥΚΛΟΣ WEBRip (ΑΝΤ1 2017-) ΕΠ.ΕΠΕΤΕΙΑΚΟ EKydSyt


ΡΑΔΙΟ ΑΡΒΥΛΑ 11ος ΚΥΚΛΟΣ WEBRip (ΑΝΤ1 2017-) ΕΠ.ΕΠΕΤΕΙΑΚΟ ZPAQxlN

  Βοηθήστε εντελώς ανέξοδα τους uploaders, ανανεώνοντας τακτικά την ip σας, με 1 απλή επανεκκίνηση του router.

ΡΑΔΙΟ ΑΡΒΥΛΑ 11ος ΚΥΚΛΟΣ WEBRip (ΑΝΤ1 2017-) ΕΠ.ΕΠΕΤΕΙΑΚΟ A3VtJrt
                       



                        



ΡΑΔΙΟ ΑΡΒΥΛΑ 11ος ΚΥΚΛΟΣ WEBRip (ΑΝΤ1 2017-) ΕΠ.ΕΠΕΤΕΙΑΚΟ AC1zS



Έχει επεξεργασθεί από τον/την loufjohn στις Δευ Απρ 23, 2018 7:03 am, 7 φορές συνολικά

#2
 loufjohn


ΑΝΕΒΗΚΕ ΤΟ 02 (5/3/2018)

#3
 loufjohn


ΑΝΕΒΗΚΕ ΕΩΣ ΤΟ 03

#4
 loufjohn


ΑΝΕΒΗΚΕ ΕΩΣ 04 (12/3/2018)

#5
 loufjohn


ΑΝΕΒΗΚΕ ΕΩΣ 05

#6
 loufjohn


ΑΝΕΒΗΚΕ ΕΩΣ 06

#7
 Yannis Petris


Ευχαριστώ!

#8
 loufjohn


ΑΝΕΒΗΚΕ ΤΟ 07 ΚΑΙ 08

#9
 loufjohn


ΑΝΕΒΗΚΕ ΕΩΣ 09 (27/3/2018)

#10
 loufjohn


ΑΝΕΒΗΚΕ ΤΟ ΕΠΕΤΕΙΑΚΟ ΕΠΕΙΣΟΔΙΟ

Επισκόπηση προηγούμενης Θ.Ενότητας Επισκόπηση επόμενης Θ.Ενότητας Επιστροφή στην κορυφή  Μήνυμα [Σελίδα 1 από 1]


Δικαιώματα σας στην κατηγορία αυτή
Δεν μπορείτε να απαντήσετε στα Θέματα αυτής της Δ.Συζήτησης

Τρόποι Κοινοποίησης:
URL:
BBCode:
HTML: