Σύντομα πολλές κατηγοριες θα είναι ανοιχτές για όλους...

Μη Συνδεδεμενος Παρακαλώ συνδεθείτε ή εγγραφείτε

Επισκόπηση προηγούμενης Θ.Ενότητας Επισκόπηση επόμενης Θ.Ενότητας Πήγαινε κάτω  Μήνυμα [Σελίδα 1 από 1]

#1
 POPIKOSTAS




CARVE HER NAME WITH PRIDE (1958) DVDRip - ΞΕΧΩΡΙΣΤΟΙ ΥΠΟΤΙΤΛΟΙ

Σκηνοθεσία: Lewis Gilbert |
Σενάριο: R.J. Minney, Vernon Harris
Ηθοποιοί: Virginia McKenna, Paul Scofield, Jack Warner, Denise Grey, Alain Saury

Υπότιτλοι: Nikodimos Sentinel

Μια βρετανίδα η Violette Szabo γίνετε κατάσκοπος για να εκδικηθεί τους ναζί για τον θάνατο του συζύγου της.
Η αληθινή ιστορία της Violette Szabo που από τα αρώματα του Λονδίνου, βρέθηκε στην δυσωδία του Δευτέρου Παγκοσμίου Πολέμου. Περιφρόνησε τους ανακριτές της Γκεστάπο και τον θάνατο, αφήνοντας μια ανεκτίμητη κληρονομιά. Η κλασική πια ταινία παρουσίασε ένα μικρό μόνο κομμάτι της ιστορίας της. Το πώς δηλαδή μια σκληρά εργαζόμενη γυναίκα από το νότιο Λονδίνο κατάφερε να πείσει πως ήταν μια Γαλλίδα γραμματέας ονόματι Corinne Leroy.
   
[video][Πρέπει να είστε εγγεγραμμένοι και συνδεδεμένοι για να δείτε αυτόν το σύνδεσμο.]



Κώδικας:
http://www.imdb.com/title/tt0051454/

ΤΕΧΝΙΚΑ ΧΑΡΑΚΤΗΡΙΣΤΙΚΑ

Σπόιλερ:

General
Complete name               : Carve her name with pride (1958).avi
Format                      : AVI
Format/Info                 : Audio Video Interleave
Format profile              : OpenDML
File size                   : 1.28 GiB
Duration                    : 1 h 54 min
Overall bit rate            : 1 602 kb/s
Writing application         : MEncoder SVN-r33883(20110719-gcc4.5.2)
Writing library             : MPlayer

Video
ID                          : 0
Format                      : MPEG-4 Visual
Format profile              : Advanced Simple@L5
Format settings             : BVOP2
Format settings, BVOP       : 2
Format settings, QPel       : No
Format settings, GMC        : No warppoints
Format settings, Matrix     : Default (H.263)
Codec ID                    : XVID
Codec ID/Hint               : XviD
Duration                    : 1 h 54 min
Bit rate                    : 1 459 kb/s
Width                       : 768 pixels
Height                      : 576 pixels
Display aspect ratio        : 4:3
Frame rate                  : 25.000 FPS
Color space                 : YUV
Chroma subsampling          : 4:2:0
Bit depth                   : 8 bits
Scan type                   : Progressive
Compression mode            : Lossy
Bits/(Pixel*Frame)          : 0.132
Stream size                 : 1.16 GiB (91%)
Writing library             : XviD 1.2.1 (UTC 2008-12-04)

Audio
ID                          : 1
Format                      : MPEG Audio
Format version              : Version 1
Format profile              : Layer 3
Format settings             : Joint stereo / MS Stereo
Mode                        : Joint stereo
Mode extension              : MS Stereo
Codec ID                    : 55
Codec ID/Hint               : MP3
Duration                    : 1 h 54 min
Bit rate mode               : Constant
Bit rate                    : 128 kb/s
Channel(s)                  : 2 channels
Sampling rate               : 44.1 kHz
Compression mode            : Lossy
Delay relative to video     : 92 ms
Stream size                 : 104 MiB (8%)
Alignment                   : Aligned on interleaves
Interleave, duration        : 26  ms (0.65 video frame)
Interleave, preload duratio : 522  ms
Writing library             : LAME3.98.4








Επισκόπηση προηγούμενης Θ.Ενότητας Επισκόπηση επόμενης Θ.Ενότητας Επιστροφή στην κορυφή  Μήνυμα [Σελίδα 1 από 1]


Δικαιώματα σας στην κατηγορία αυτή
Δεν μπορείτε να απαντήσετε στα Θέματα αυτής της Δ.Συζήτησης

Τρόποι Κοινοποίησης:
URL:
BBCode:
HTML: