Σύντομα πολλές κατηγοριες θα είναι ανοιχτές για όλους...

Μη Συνδεδεμενος Παρακαλώ συνδεθείτε ή εγγραφείτε

Μετάβαση στη σελίδα : 1, 2  Επόμενο

Επισκόπηση προηγούμενης Θ.Ενότητας Επισκόπηση επόμενης Θ.Ενότητας Πήγαινε κάτω  Μήνυμα [Σελίδα 1 από 2]

#1
 loufjohn


POWER OF LOVE (2018-) ΣΚΑΪ TVRip AVI HD





[Πρέπει να είστε εγγεγραμμένοι και συνδεδεμένοι για να δείτε αυτόν το σύνδεσμο.]

Power of Love, το νέο ανατρεπτικό show σχέσεων τώρα στο ΣΚΑΪ

6 γυναίκες και 6 άντρες προσπαθούν να βρουν το κατάλληλο ταίρι. Σε ένα σπίτι φιλοξενούνται οι δυο ομάδες, σε ξεχωριστούς όμως χώρους.
Μέσα από αυτές τις συναντήσεις με το αντίθετο φύλο, τα μέλη και των 2 ομάδων προσπαθούν
να ξεχωρίσουν τον ιδανικό σύντροφο.
Ολο το show είναι γυρισμένο στην Κωνσταντινούπολη

Παρουσίαση: Μαρία Μπακοδήμου


[Πρέπει να είστε εγγεγραμμένοι και συνδεδεμένοι για να δείτε αυτόν το σύνδεσμο.]




[Πρέπει να είστε εγγεγραμμένοι και συνδεδεμένοι για να δείτε αυτόν το σύνδεσμο.]



   General
      Complete name :Power.of.Love.EP.01.avi
      Format : AVI
      Format/Info : Audio Video Interleave
      Format profile : OpenDML
      File size : 2.25 GiB
      Duration : 2 h 1 min
      Overall bit rate : 2 658 kb/s
      Writing application : Lavf57.56.101
   Video [Πρέπει να είστε εγγεγραμμένοι και συνδεδεμένοι για να δείτε αυτόν το σύνδεσμο.]
      ID : 0
      Format : AVC
      Format/Info : Advanced Video Codec
      Format profile : High@L3.1
      Format settings : CABAC / 4 Ref Frames
      Format settings, CABAC : Yes
      Format settings, ReFrames : 4 frames
      Codec ID : H264
      Duration : 2 h 1 min
      Bit rate : 2 500 kb/s
      Width : 1 280 pixels
      Height : 720 pixels
      Display aspect ratio : 16:9
      Frame rate mode : Variable
      Frame rate : 23.976 (24000/1001) FPS
      Color space : YUV
      Chroma subsampling : 4:2:0
      Bit depth : 8 bits
      Scan type : Progressive
      Bits/(Pixel*Frame) : 0.113
      Stream size : 2.13 GiB (95%)
      Writing library : x264 core 148 r2643 5c65704
     
   Audio [Πρέπει να είστε εγγεγραμμένοι και συνδεδεμένοι για να δείτε αυτόν το σύνδεσμο.]
      ID : 1
      Format : MPEG Audio
      Format version : Version 1
      Format profile : Layer 3
      Format settings : Joint stereo / MS Stereo
      Codec ID : 55
      Codec ID/Hint : MP3
      Duration : 2 h 1 min
      Bit rate mode : Constant
      Bit rate : 128 kb/s
      Channel(s) : 2 channels
      Sampling rate : 48.0 kHz
      Compression mode : Lossy
      Stream size : 111 MiB (5%)
      Alignment : Aligned on interleaves
      Interleave, duration : 24  ms (0.58 video frame)
      Interleave, preload duration : 240  ms
 
[Πρέπει να είστε εγγεγραμμένοι και συνδεδεμένοι για να δείτε αυτόν το σύνδεσμο.]



[Πρέπει να είστε εγγεγραμμένοι και συνδεδεμένοι για να δείτε αυτόν το σύνδεσμο.]


[Πρέπει να είστε εγγεγραμμένοι και συνδεδεμένοι για να δείτε αυτόν το σύνδεσμο.]



[Πρέπει να είστε εγγεγραμμένοι και συνδεδεμένοι για να δείτε αυτόν το σύνδεσμο.]







Έχει επεξεργασθεί από τον/την loufjohn στις Τετ Απρ 25, 2018 8:19 am, 40 φορές συνολικά

#2
 loufjohn


ΑΝΕΒΗΚΕ ΤΟ ΔΕΥΤΕΡΟ ΕΠΕΙΣΟΔΙΟ

#3
 loufjohn


ΑΝΕΒΗΚΕ ΕΩΣ 03

#4
 loufjohn


ΑΝΕΒΗΓΚΕ ΕΩΣ 04

#5
 loufjohn


ΑΝΕΒΗΚΕ ΕΩΣ 05+GALA

#6
 loufjohn


ΑΝΕΒΗΚΕ ΕΩΣ 06

#7
 loufjohn


ΑΝΕΒΗΚΕ ΕΩΣ 07

#8
 loufjohn


ΑΝΕΒΗΚΕ ΕΩΣ 08

#9
 loufjohn


ΑΝΕΒΗΚΕ ΕΩΣ 09

#10
 loufjohn


ΑΝΕΒΗΚΕ ΕΩΣ ΤΟ 10 ΚΑΙ GALA 02

#11
 loufjohn


ΑΝΕΒΗΚΕ ΕΩΣ 11

#12
 loufjohn


ΑΝΕΒΗΚΕ ΕΩΣ 12

#13
 loufjohn


ΑΝΕΒΗΚΕ ΕΩΣ 13

#14
 loufjohn


ΑΝΕΒΗΚΕ ΕΩΣ 14

#15
 loufjohn


ΑΝΕΒΗΚΕ ΕΩΣ 15 + GALA 03

#16
 loufjohn


ΑΝΕΒΗΚΕ ΕΩΣ 16

#17
 loufjohn


ΑΝΕΒΗΚΕ ΕΩΣ 17

#18
 loufjohn


ΑΝΕΒΗΚΕ ΕΩΣ 18

#19
 loufjohn


ΑΝΕΒΗΚΕ ΕΩΣ ΤΟ 19

#20
 loufjohn


ΑΝΕΒΗΚΕ ΕΩΣ 20 + GALA 04

#21
 loufjohn


ΑΝΕΒΗΚΕ ΕΩΣ 21

#22
 loufjohn


ΑΝΕΒΗΚΕ ΕΩΣ 22

#23
 loufjohn


ΑΝΕΒΗΚΕ ΕΩΣ 23

#24
 loufjohn


ΑΝΕΒΗΚΕ ΕΩΣ 24

#25
 loufjohn


ANEBHKE EΩΣ 25 KAI GALA 05

Επισκόπηση προηγούμενης Θ.Ενότητας Επισκόπηση επόμενης Θ.Ενότητας Επιστροφή στην κορυφή  Μήνυμα [Σελίδα 1 από 2]

Μετάβαση στη σελίδα : 1, 2  Επόμενο


Δικαιώματα σας στην κατηγορία αυτή
Δεν μπορείτε να απαντήσετε στα Θέματα αυτής της Δ.Συζήτησης

Τρόποι Κοινοποίησης:
URL:
BBCode:
HTML: