Σύντομα πολλές κατηγοριες θα είναι ανοιχτές για όλους...

Μη Συνδεδεμενος Παρακαλώ συνδεθείτε ή εγγραφείτε

Μετάβαση στη σελίδα : 1, 2  Επόμενο

Επισκόπηση προηγούμενης Θ.Ενότητας Επισκόπηση επόμενης Θ.Ενότητας Πήγαινε κάτω  Μήνυμα [Σελίδα 1 από 2]

#1
 loufjohn


ΤΟ ΤΑΤΟΥΑΖ (ALPHA tv 2017-) TVRip




[Πρέπει να είστε εγγεγραμμένοι και συνδεδεμένοι για να δείτε αυτόν το σύνδεσμο.]



ΥΠΟΘΕΣΗ

Το Τατουάζ είναι μια σειρά γεμάτη έρωτα, απαγορευμένους δεσμούς και εγκλήματα πάθους. Μια ερωτική ιστορία γεννιέται κάτω από αντίξοες συνθήκες.
Ένα αστυνομικό θρίλερ με φόντο την Αίγινα και τα Μετέωρα, όπου ένας κατά συρροή δολοφόνος βάζει στο στόχαστρο νεαρές γυναίκες…
 
Η Άννα (Δανάη Παππά) είναι παντρεμένη με τον Τόνυ (Μιχάλης Λεβεντογιάννης) και ζει μόνιμα στο Λονδίνο. Απογοητευμένη από τον γάμο της,
αποφασίζει να πάει διακοπές με τη φίλη της, την Νικόλ (Ελεονώρα Αντωνιάδου) στην Ελλάδα, με σκοπό να συναντήσει τον Αλέξανδρο (Στέφανος Μιχαήλ)
με τον οποίο έχουν γνωριστεί εδώ και ένα χρόνο μέσω Facebook. Η συνάντησή τους θα γεννήσει έναν κεραυνοβόλο έρωτα. Η Άννα με την Νικόλ
θα περάσουν κάποιες ξέγνοιαστες μέρες στην Αίγινα, μέχρι τη στιγμή που ο Αλέξανδρος θα εξαφανιστεί. Η Άννα, γεμάτη αγωνία, θα απευθυνθεί στους γονείς του,
τον Παύλο (Γιώργος Παρτσαλάκης) και την Μάρθα (Ελίνα Ακριτίδου). Και οι τρεις μαζί θα ψάξουν τον Αλέξανδρο στο σπίτι του. Εκεί θα τους περιμένει μια δυσάρεστη έκπληξη…
 
Λίγες μέρες μετά εξαφανίζεται μυστηριωδώς και η Άννα. Το γεγονός αυτό θα αναγκάσει τον Θεοχάρη (Απόστολος Γκλέτσος), πατέρα της Άννας,
να έρθει στην Ελλάδα, για να την αναζητήσει. Η νέα σύντροφός του, Βέρα (Εβελίνα Παπούλια) του συμπαραστέκεται αναλαμβάνοντας να φροντίσει την Αμαλία (Μυρτώ Αλικάκη),
γυναίκα τού Θεοχάρη και μητέρα της Άννας, η οποία αντιμετωπίζει ένα πολύ σοβαρό θέμα υγείας.
 
Το σενάριο υπογράφει η Βάνα Δημητρίου και τη σκηνοθεσία ο Αντρέας Γεωργίου, ο Στάμος Τσάμης και ο Κώστας Αναγνωστόπουλος.
 
Πρωταγωνιστούν: Στέφανος Μιχαήλ, Δανάη Παππά, Εβελίνα Παπούλια, Μυρτώ Αλικάκη, Ελίνα Ακριτίδου, Χρύσα Παππά, Κατερίνα Γερονικολού, Χριστίνα Χριστόφια,
Νίκος Πολυδερόπουλος, Μιχάλης Λεβεντογιάννης, Έλενα Λιασίδου, Ελεονώρα Αντωνιάδου, Έλενα Πιερίδου, Ιάσονας Δαμιανός, Αλέξανδρος Πέρρος, Φανή Καμπιώτη.
Στον ρόλο του Παύλου Μελά, ο Γιώργος Παρτσαλάκης
Στον ρόλο της Μαργκός Νίβεν, η Κοραλία Καράντη
Στον ρόλο του Θεοχάρη Ραζή, ο Απόστολος Γκλέτσος.


[Πρέπει να είστε εγγεγραμμένοι και συνδεδεμένοι για να δείτε αυτόν το σύνδεσμο.]



[Πρέπει να είστε εγγεγραμμένοι και συνδεδεμένοι για να δείτε αυτόν το σύνδεσμο.]


   General
      Complete name :SHMADI.EP.01-02.avi
      Format : AVI
      Format/Info : Audio Video Interleave
      File size : 1.41 GiB
      Duration : 1 h 47 min
      Overall bit rate : 1 889 kb/s
   Video [Πρέπει να είστε εγγεγραμμένοι και συνδεδεμένοι για να δείτε αυτόν το σύνδεσμο.]
      ID : 0
      Format : AVC
      Format/Info : Advanced Video Codec
      Format profile : Baseline@L3
      Format settings, CABAC : No
      Format settings, ReFrames : 1 frame
      Codec ID : H264
      Duration : 1 h 47 min
      Bit rate : 1 748 kb/s
      Width : 640 pixels
      Height : 352 pixels
      Display aspect ratio : 16:9
      Frame rate : 25.000 FPS
      Color space : YUV
      Chroma subsampling : 4:2:0
      Bit depth : 8 bits
      Scan type : Progressive
      Bits/(Pixel*Frame) : 0.310
      Stream size : 1.31 GiB (93%)
      Writing library : x264 core 146 r2538 121396c

   Audio [Πρέπει να είστε εγγεγραμμένοι και συνδεδεμένοι για να δείτε αυτόν το σύνδεσμο.]
      ID : 1
      Format : MPEG Audio
      Format version : Version 1
      Format profile : Layer 3
      Codec ID : 55
      Codec ID/Hint : MP3
      Duration : 1 h 47 min
      Bit rate mode : Constant
      Bit rate : 128 kb/s
      Channel(s) : 2 channels
      Sampling rate : 48.0 kHz
      Compression mode : Lossy
      Stream size : 98.1 MiB (7%)
      Alignment : Aligned on interleaves
      Interleave, duration : 24  ms (0.60 video frame)
 






[Πρέπει να είστε εγγεγραμμένοι και συνδεδεμένοι για να δείτε αυτόν το σύνδεσμο.]


[Πρέπει να είστε εγγεγραμμένοι και συνδεδεμένοι για να δείτε αυτόν το σύνδεσμο.]

  Βοηθήστε εντελώς ανέξοδα τους uploaders, ανανεώνοντας τακτικά την ip σας, με 1 απλή επανεκκίνηση του router.

[Πρέπει να είστε εγγεγραμμένοι και συνδεδεμένοι για να δείτε αυτόν το σύνδεσμο.]
                       


                        




Έχει επεξεργασθεί από τον/την loufjohn στις Παρ Μάης 25, 2018 5:45 am, 36 φορές συνολικά

#2
 loufjohn


ΑΝΕΒΗΚΕ ΕΩΣ 118

#3
 loufjohn


ΑΝΕΒΗΚΕ ΕΩΣ 120

#4
 loufjohn


ΑΝΕΒΗΚΕ ΕΩΣ 122

#5
 loufjohn


ΑΝΕΒΗΚΕ ΕΩΣ 124

#6
 loufjohn


ΑΝΕΒΗΚΕ ΕΩΣ 126

#7
 loufjohn


ΑΝΕΒΗΚΕ ΕΩΣ 128

#8
 loufjohn


ΑΝΕΒΗΚΕ ΕΩΣ ΤΟ 130

#9
 loufjohn


ΑΝΕΒΗΚΕ ΕΩΣ 132

#10
 loufjohn


ΑΝΕΒΗΚΕ ΕΩΣ 134

#11
 loufjohn


ΑΝΕΒΗΚΕ ΕΩΣ 136

#12
 loufjohn


ΑΝΕΒΗΚΕ ΕΩΣ 138

#13
 loufjohn


ΑΝΕΒΗΚΕ ΤΟ ΝΕΟ ΕΠΕΙΣΟΔΙΟ

#14
 loufjohn


ΑΝΕΒΗΚΕ ΤΟ ΝΕΟ ΕΠΕΙΣΟΔΙΟ

#15
 Yannis Petris


Ευχαριστώ!

#16
 loufjohn


ΑΝΕΒΗΚΕ ΕΩΣ 142

#17
 loufjohn


ΑΝΕΒΗΚΕ ΕΩΣ 144

#18
 loufjohn


ΑΝΕΒΗΚΕ ΕΩΣ 146

#19
 loufjohn


ΑΝΕΒΗΚΕ ΕΩΣ 148

#20
 loufjohn


ΑΝΕΒΗΚΕ ΕΩΣ 150

#21
 loufjohn


ΑΝΕΒΗΚΕ ΕΩΣ 152

#22
 loufjohn


ΑΝΕΒΗΚΕ ΕΩΣ 154

#23
 loufjohn


ΑΝΕΒΗΚΕ ΕΩΣ 160

#24
 loufjohn


ΑΝΕΒΗΚΕ ΕΩΣ 164

#25
 loufjohn


ΑΝΕΒΗΚΕ ΕΩΣ 166

Επισκόπηση προηγούμενης Θ.Ενότητας Επισκόπηση επόμενης Θ.Ενότητας Επιστροφή στην κορυφή  Μήνυμα [Σελίδα 1 από 2]

Μετάβαση στη σελίδα : 1, 2  Επόμενο


Δικαιώματα σας στην κατηγορία αυτή
Δεν μπορείτε να απαντήσετε στα Θέματα αυτής της Δ.Συζήτησης

Τρόποι Κοινοποίησης:
URL:
BBCode:
HTML: