Σύντομα πολλές κατηγοριες θα είναι ανοιχτές για όλους...

Μη Συνδεδεμενος Παρακαλώ συνδεθείτε ή εγγραφείτε

Επισκόπηση προηγούμενης Θ.Ενότητας Επισκόπηση επόμενης Θ.Ενότητας Πήγαινε κάτω  Μήνυμα [Σελίδα 1 από 1]

#1
 loufjohn


ΜΗΝ ΑΡΧΙΖΕΙΣ ΤΗ ΜΟΥΡΜΟΥΡΑ (2017-) Ε' ΚΥΚΛΟΣ WEBRip AVI (ALPHA TV)




[Πρέπει να είστε εγγεγραμμένοι και συνδεδεμένοι για να δείτε αυτόν το σύνδεσμο.]

Για πέμπτη χρονιά κοντά σας η αγαπημένη σας σειρά

Ήταν ένα συνηθισμένο βράδυ του Οκτώβρη, τότε στο… μακρινό 2013, όταν μπήκε στα σπίτια μας δειλά δειλά. Αγαπήθηκε απ’ την πρώτη στιγμή! Τα άλλαξε όλα! Έγινε αναπόσπαστο
κομμάτι της ζωής μας κι από τότε, μας συντροφεύει τα τελευταία τέσσερα χρόνια.
Η επιτυχημένη σειρά του Alpha «Μην αρχίζεις τη μουρμούρα», επιστρέφει ανανεωμένη και αλλάζει το ραντεβού της. Aυτή τη σεζόν έρχεται στις οθόνες μας κάθε Πέμπτη
και Παρασκευή
Δύο ζευγάρια, που ήδη γνωρίζουμε καλά και αγαπάμε. Φέτος θα τα γνωρίσουμε καλύτερα!
Είναι η χρονιά των μεγάλων αλλαγών, καθώς ο Μηνάς αναλαμβάνει πρόεδρος μιας ποδοσφαιρικής ομάδας! Εντάξει, μπορεί να μην είναι η αγαπημένη του ΑΕΚ, είναι όμως
η ομάδα του χωριού του, που την έστησε με αγάπη και πείσμα, κόντρα σε όλα τα εμπόδια. Αλλά και η Βούλα έχει μεγάλα σχέδια για φέτος! Ήρθε ο καιρός να τελειώσει
το Λύκειο, καθώς δεν πρόλαβε να πάρει το απολυτήριο, γιατί κλέφτηκε με τον Μηνά! Αυτή τη χρονιά θα εκπληρώσει το όνειρο της και θα γυρίσει στα θρανία…
 
Κι επειδή φέτος η μόδα προστάζει μιλιτέρ, Μαρίνα και Ηλίας θα… ντυθούν στο χακί. Η Μαρίνα, δεν αντέχει στην ιδέα ότι ο καλομαθημένος της γιος, Αλέξανδρος,
πρέπει να υπηρετήσει τη μαμά πατρίδα και θα επιστρατεύσει τον Ηλία για να περάσουν μαζί αυτή τη θητεία που αναμένεται δύσκολη!
 
Οι εκπλήξεις, όμως, δεν σταματούν εκεί! Δύο καινούργια ζευγάρια έρχονται για να μοιραστούν μαζί μας την καθημερινότητά τους.
Ο Μπάμπης και η Ξένια! Αυτός είναι Ποντιακής καταγωγής και έχει τρία ακλόνητα πιστεύω:
«Ο ΠΑΟΚ είναι θρησκεία αφού», «Μάνα είναι μόνο μία» και «Σαν τη Χαλκιδική δεν έχει».
Αυτή είναι οργανωτική, μεγαλωμένη στη Γερμανία, από γονείς μετανάστες, που έχουν ένα από τα πιο γνωστά ελληνικά εστιατόρια στο Αμβούργο.
Και τους δύο τούς βασανίζει η έφηβη κόρη τους, Σοφία, με την τρελή εφηβεία της.
 
Μαζί μας και ο Άγγελος με την Βέλη! Είναι ζευγάρι τον τελευταίο ένα χρόνο! Αποφασίζουν να μετακομίσουν από την Ισπανία στην Ελλάδα και συγκεκριμένα στην Αθήνα.
Είναι διαφορετικοί σαν χαρακτήρες, αλλά συμπληρώνει ο ένας τον άλλο. Προσπαθούν να ισορροπήσουν ανάμεσα στα ζόρια της ενηλικίωσης και την ανεμελιά των εικοσιπεντάρηδων.
 
Το σενάριο υπογράφουν οι: Έλενα Σολωμού, Παναγιώτης Χριστόπουλος, Σάρα Γανωτή, Θέμης Γκυρτής, Φώφη Κώττη, Γωγώ Φώτου.
Σκηνοθετεί ο Διονύσης Φερεντίνος.
Μουρμουρίζουν οι: Αντώνης Αντωνίου, Ελένη Κοκκίδου, Βλαδίμηρος Κυριακίδης, Δάφνη Λαμπρόγιαννη, Σπύρος Τσεκούρας, Άννα Κουτσαφτίκη, Σπύρος Χατζηαγγελάκης,
Μαρία Χάνου.

 

[Πρέπει να είστε εγγεγραμμένοι και συνδεδεμένοι για να δείτε αυτόν το σύνδεσμο.]





[Πρέπει να είστε εγγεγραμμένοι και συνδεδεμένοι για να δείτε αυτόν το σύνδεσμο.]


   General
      Complete name :Moyrmoyra.Special.S04.EP.01.avi
      Format : AVI
      Format/Info : Audio Video Interleave
      File size : 792 MiB
      Duration : 1 h 18 min
      Overall bit rate : 1 402 kb/s
   Video [Πρέπει να είστε εγγεγραμμένοι και συνδεδεμένοι για να δείτε αυτόν το σύνδεσμο.]
      ID : 0
      Format : AVC
      Format/Info : Advanced Video Codec
      Format profile : Baseline@L3.1
      Format settings, CABAC : No
      Format settings, ReFrames : 1 frame
      Codec ID : H264
      Duration : 1 h 18 min
      Bit rate : 1 261 kb/s
      Width : 1 280 pixels
      Height : 720 pixels
      Display aspect ratio : 16:9
      Frame rate : 25.000 FPS
      Color space : YUV
      Chroma subsampling : 4:2:0
      Bit depth : 8 bits
      Scan type : Progressive
      Bits/(Pixel*Frame) : 0.055
      Stream size : 712 MiB (90%)
      Writing library : x264 core 146 r2538 121396c
     
   Audio [Πρέπει να είστε εγγεγραμμένοι και συνδεδεμένοι για να δείτε αυτόν το σύνδεσμο.]
      ID : 1
      Format : MPEG Audio
      Format version : Version 1
      Format profile : Layer 3
      Codec ID : 55
      Codec ID/Hint : MP3
      Duration : 1 h 18 min
      Bit rate mode : Constant
      Bit rate : 128 kb/s
      Channel(s) : 2 channels
      Sampling rate : 48.0 kHz
      Compression mode : Lossy
      Stream size : 72.3 MiB (9%)
      Alignment : Aligned on interleaves
      Interleave, duration : 24  ms (0.60 video frame)

 




 

[Πρέπει να είστε εγγεγραμμένοι και συνδεδεμένοι για να δείτε αυτόν το σύνδεσμο.]


[Πρέπει να είστε εγγεγραμμένοι και συνδεδεμένοι για να δείτε αυτόν το σύνδεσμο.]

   Βοηθήστε εντελώς ανέξοδα τους uploaders, ανανεώνοντας τακτικά την ip σας, με 1 απλή επανεκκίνηση του router.

[Πρέπει να είστε εγγεγραμμένοι και συνδεδεμένοι για να δείτε αυτόν το σύνδεσμο.]

              
         





                        







Έχει επεξεργασθεί από τον/την loufjohn στις Παρ Μάης 25, 2018 6:43 am, 23 φορές συνολικά

#2
 botonakis


thanx

#3
 loufjohn


ΑΝΕΒΗΚΕ ΕΩΣ 33

#4
 atozak

avatar
η μουρμουρα ειναι το αγαπιμενο μου σιριαλ!!!! τα περνο στο κρανιο με την βουλα του μινα απο 3 κικλο και μετα βλεπο ανελιπος!!!!!!!!!!!!!!!!!! cheers

http://www.greekport.gr

#5
 loufjohn


ΑΝΕΒΗΚΕ ΕΩΣ 34

#6
 loufjohn


ΑΝΕΒΗΚΕ ΕΣ 35

#7
 loufjohn


ΑΝΕΒΗΚΕ ΕΩΣ 36

#8
 loufjohn


ΑΝΕΒΗΚΕ ΕΩΣ 37

#9
 loufjohn


ΑΝΕΒΗΚΕ ΕΩΣ 38

#10
 loufjohn


ΑΝΕΒΗΚΕ ΕΩΣ 39

#11
 loufjohn


ΑΝΕΒΗΚΕ ΕΩΣ 40

#12
 loufjohn


ΑΝΕΒΗΚΕ ΕΩΣ 41

#13
 Yannis Petris


Ευχαριστώ!

#14
 loufjohn


ΑΝΕΒΗΚΕ ΕΩΣ 42

#15
 loufjohn


ΑΝΕΒΗΚΕ ΕΩΣ 43

#16
 loufjohn


ΑΝΕΒΗΚΕ ΕΩΣ 45

#17
 loufjohn


ΑΝΕΒΗΚΕ ΕΩΣ 47

#18
 loufjohn


ΑΝΕΒΗΚΕ ΕΩΣ 48

#19
 loufjohn


ΑΝΕΒΗΚΕ ΕΩΣ 49

#20
 loufjohn


ANEBHKE EVS 50

#21
 loufjohn


ΑΝΕΒΗΚΕ ΕΩΣ 52

#22
 loufjohn


ΑΝΕΒΗΚΕ ΕΩΣ 53

#23
 loufjohn


ΑΝΕΒΗΚΕ ΕΩΣ 54

#24
 loufjohn


ΑΝΕΒΗΚΕ ΕΩΣ 56

#25
 loufjohn


ΑΝΕΒΗΚΕ ΕΩΣ 58

Επισκόπηση προηγούμενης Θ.Ενότητας Επισκόπηση επόμενης Θ.Ενότητας Επιστροφή στην κορυφή  Μήνυμα [Σελίδα 1 από 1]


Δικαιώματα σας στην κατηγορία αυτή
Δεν μπορείτε να απαντήσετε στα Θέματα αυτής της Δ.Συζήτησης

Τρόποι Κοινοποίησης:
URL:
BBCode:
HTML: