Σύντομα πολλές κατηγοριες θα είναι ανοιχτές για όλους...

Μη Συνδεδεμενος Παρακαλώ συνδεθείτε ή εγγραφείτε

Επισκόπηση προηγούμενης Θ.Ενότητας Επισκόπηση επόμενης Θ.Ενότητας Πήγαινε κάτω  Μήνυμα [Σελίδα 1 από 1]

#1
 loufjohn


4XXX4 (ANT1TV) TVRip AVI (2017-)





[Πρέπει να είστε εγγεγραμμένοι και συνδεδεμένοι για να δείτε αυτόν το σύνδεσμο.]


Το στοίχημα ξεκινάει. Θύτης η Λυδία και πρώτο υποψήφιο θύμα ο Νικήτας, ο άντρας της Βούλας. Η Λυδία τον επισκέπτεται
στο μανάβικό του και αναστατώνεται. Του κλείνει ραντεβού για το βράδυ. Παράλληλα η Βερόνικα συζητάει με την ψυχολόγο της
για το σεξουαλικό της πρόβλημα και τελικά ανακοινώνει στο σύντροφό της Αιμίλιο, ότι θα απέχει


[Πρέπει να είστε εγγεγραμμένοι και συνδεδεμένοι για να δείτε αυτόν το σύνδεσμο.]





[Πρέπει να είστε εγγεγραμμένοι και συνδεδεμένοι για να δείτε αυτόν το σύνδεσμο.]


   General
      Complete name :TESARES.EP.01.1080p.avi
      Format : AVI
      Format/Info : Audio Video Interleave
      File size : 979 MiB
      Duration : 47 min 10 s
      Overall bit rate : 2 902 kb/s
   Video [Πρέπει να είστε εγγεγραμμένοι και συνδεδεμένοι για να δείτε αυτόν το σύνδεσμο.]
      ID : 0
      Format : AVC
      Format/Info : Advanced Video Codec
      Format profile : Baseline@L4.2
      Format settings, CABAC : No
      Format settings, ReFrames : 1 frame
      Codec ID : H264
      Duration : 47 min 10 s
      Bit rate : 2 755 kb/s
      Width : 1 920 pixels
      Height : 1 080 pixels
      Display aspect ratio : 16:9
      Frame rate : 50.000 FPS
      Color space : YUV
      Chroma subsampling : 4:2:0
      Bit depth : 8 bits
      Scan type : Progressive
      Bits/(Pixel*Frame) : 0.027
      Stream size : 930 MiB (95%)
      Writing library : x264 core 146 r2538 121396c
     
   Audio [Πρέπει να είστε εγγεγραμμένοι και συνδεδεμένοι για να δείτε αυτόν το σύνδεσμο.]
      ID : 1
      Format : MPEG Audio
      Format version : Version 1
      Format profile : Layer 3
      Codec ID : 55
      Codec ID/Hint : MP3
      Duration : 47 min 10 s
      Bit rate mode : Constant
      Bit rate : 128 kb/s
      Channel(s) : 2 channels
      Sampling rate : 48.0 kHz
      Compression mode : Lossy
      Stream size : 43.2 MiB (4%)
      Alignment : Aligned on interleaves
      Interleave, duration : 24  ms (1.20 video frame)







 

[Πρέπει να είστε εγγεγραμμένοι και συνδεδεμένοι για να δείτε αυτόν το σύνδεσμο.]


[Πρέπει να είστε εγγεγραμμένοι και συνδεδεμένοι για να δείτε αυτόν το σύνδεσμο.]



[Πρέπει να είστε εγγεγραμμένοι και συνδεδεμένοι για να δείτε αυτόν το σύνδεσμο.]

              
         





                        







Έχει επεξεργασθεί από τον/την loufjohn στις Σαβ Μαρ 10, 2018 7:57 am, 1 φορά

#2
 loufjohn


ΑΝΕΒΗΚΕ ΕΩΣ 23

#3
 botonakis


thanx

#4
 loufjohn


ΑΝΕΒΗΚΕ ΕΩΣ 24

Επισκόπηση προηγούμενης Θ.Ενότητας Επισκόπηση επόμενης Θ.Ενότητας Επιστροφή στην κορυφή  Μήνυμα [Σελίδα 1 από 1]


Δικαιώματα σας στην κατηγορία αυτή
Δεν μπορείτε να απαντήσετε στα Θέματα αυτής της Δ.Συζήτησης

Τρόποι Κοινοποίησης:
URL:
BBCode:
HTML: