Σύντομα πολλές κατηγοριες θα είναι ανοιχτές για όλους...

Μη Συνδεδεμενος Παρακαλώ συνδεθείτε ή εγγραφείτε

Επισκόπηση προηγούμενης Θ.Ενότητας Επισκόπηση επόμενης Θ.Ενότητας Πήγαινε κάτω  Μήνυμα [Σελίδα 1 από 1]

#1
 POPIKOSTAS




ΤΟ ΞΥΠΟΛΗΤΟ ΤΑΓΜΑ (1953) TVRip

Είδος Ταινίας : Πολεμική, Περιπέτεια
Διάρκεια : 1h 30mn
Σκηνοθεσία : Γκρεγκ Τάλλας
Σενάριο : Νίκος Κατσιώτης
Ηθοποιοί : Μαρία Κωστή (I) (Αλεξάνδρα) , Νίκος Φέρμας (καπετάν Μάρκος Μαύρος) , Βασίλης Φραγκιαδάκης (Ανδρέας) , Αντώνης Βούλγαρης (Νίκος) , Στράτος
Κρόζος (Δημήτρης) , Καίτη Γκίνη , Μανώλης Ρήγας , Ευάγγελος Γιωτόπουλος , Γιώργος Αξιώτης , Χρήστος Σουκούρογλου , Νίκος Ζαχαρίας , Απόστολος Μπεκιάρης ,
Ηλίας Παπαδόπουλος , Λόλα Χατζηχρήστου , Δέσποινα Κοντογιώργου

Στη Θεσσαλονίκη, στη διάρκεια της γερμανικής κατοχής, εκτυλίσσεται η ιστορία της ταινίας αυτής που σκηνοθέτησε ο Γκρεγκ Τάλλας (Γρηγόρης
Θαλασσινός), που για ένα διάστημα εργάστηκε στο Χόλιγουντ, σκηνοθετώντας διάφορες ταινίες, ανάμεσα τους και την περιπέτεια εποχής «Η σειρήνα της
Ατλαντίδας», με πρωταγωνίστρια τη Μαρία Μοντέζ.



Κώδικας:
https://www.cine.gr/film.asp?id=600534

ΤΕΧΝΙΚΑ ΧΑΡΑΚΤΗΡΙΣΤΙΚΑ

Σπόιλερ:

General
Complete name                  : Το ξυπόλητο τάγμα.mp4
Format                         : MPEG-4
Format profile                 : Base Media / Version 2
Codec ID                       : mp42 (isom/mp42)
File size                      : 1.17 GiB
Duration                       : 1 h 30 min
Overall bit rate mode          : Variable
Overall bit rate               : 1 853 kb/s
Encoded date                   : UTC 2014-05-07 14:30:45
Tagged date                    : UTC 2014-05-07 14:30:45
gsst                           : 0
gstd                           : 5401425
gssd                           : BC27A5109MH1414495058921324
gshh                           : r6---sn-xjpm-4g5e.googlevideo.com

Video
ID                             : 1
Format                         : AVC
Format/Info                    : Advanced Video Codec
Format profile                 : High@L3.1
Format settings                : CABAC / 1 Ref Frames
Format settings, CABAC         : Yes
Format settings, RefFrames     : 1 frame
Format settings, GOP           : M=1, N=60
Codec ID                       : avc1
Codec ID/Info                  : Advanced Video Coding
Duration                       : 1 h 30 min
Bit rate                       : 1 658 kb/s
Maximum bit rate               : 4 405 kb/s
Width                          : 1 280 pixels
Height                         : 720 pixels
Display aspect ratio           : 16:9
Frame rate mode                : Constant
Frame rate                     : 25.000 FPS
Color space                    : YUV
Chroma subsampling             : 4:2:0
Bit depth                      : 8 bits
Scan type                      : Progressive
Bits/(Pixel*Frame)             : 0.072
Stream size                    : 1.04 GiB (90%)
Tagged date                    : UTC 2014-05-07 14:35:54

Audio
ID                             : 2
Format                         : AAC
Format/Info                    : Advanced Audio Codec
Format profile                 : LC
Codec ID                       : mp4a-40-2
Duration                       : 1 h 30 min
Bit rate mode                  : Variable
Bit rate                       : 192 kb/s
Maximum bit rate               : 202 kb/s
Channel(s)                     : 2 channels
Channel positions              : Front: L R
Sampling rate                  : 44.1 kHz
Frame rate                     : 43.066 FPS (1024 SPF)
Compression mode               : Lossy
Stream size                    : 124 MiB (10%)
Title                          : IsoMedia File Produced by Google, 5-11-2011
Encoded date                   : UTC 2014-05-07 14:34:13
Tagged date                    : UTC 2014-05-07 14:35:54








Επισκόπηση προηγούμενης Θ.Ενότητας Επισκόπηση επόμενης Θ.Ενότητας Επιστροφή στην κορυφή  Μήνυμα [Σελίδα 1 από 1]


Δικαιώματα σας στην κατηγορία αυτή
Δεν μπορείτε να απαντήσετε στα Θέματα αυτής της Δ.Συζήτησης

Τρόποι Κοινοποίησης:
URL:
BBCode:
HTML: