Σύντομα πολλές κατηγοριες θα είναι ανοιχτές για όλους...

Μη Συνδεδεμενος Παρακαλώ συνδεθείτε ή εγγραφείτε

Επισκόπηση προηγούμενης Θ.Ενότητας Επισκόπηση επόμενης Θ.Ενότητας Πήγαινε κάτω  Μήνυμα [Σελίδα 1 από 1]

#1
 POPIKOSTAS




Ο ΤΣΙΤΣΙΟΛΙΝΟΣ (1987) VHSRip

Είδος Ταινίας : .Κωμωδία
Διάρκεια : .87 λεπτά
Σκηνοθεσία : .Γιώργος Σκαλενάκης
Σενάριο : .Λευτέρης Καπώνης
Ηθοποιοί : .
Σωτήρης Μουστάκας
Ισμήνη Καλέση
Παύλος Ευαγγελόπουλος
Ηρώ Μουκίου
Μαίρη Χαλκιά

O Λευτερης κανει ασφαλεια ζωης στην εταιρια του κυριου Γκαντεμη. Εχει αρχιζει να κουραζεται απο την σχεση του με τη Ρενα και σκεφτεται να σκηνοθετησει το θανατο του, αφηνοντας την τα χρηματα της ασφαλειας. Μια μερα πηγαινοντας για ψαρεμα , σκηνοθετει τον πνιγμο του. Θα αλλαξει ζωη και θα γνωριστει με τη Χριστινα. Ανακαλυπτοντας η ασφαλεια καποιο πτωμα, παιρνει η Ρενα τα χρηματα της ασφαλειας και τα φτιαχνει με τον Σωτηρη, τον φιλο του Λευτερη.



Κώδικας:
http://www.imdb.com/title/tt0292293/
https://www.cine.gr/film.asp?id=701143&page=1

ΤΕΧΝΙΚΑ ΧΑΡΑΚΤΗΡΙΣΤΙΚΑ

Σπόιλερ:

General
Complete name                  : Ο ΤΣΙΤΣΙΟΛΙΝΟΣ VHSRIP(1987).mp4
Format                         : MPEG-4
Format profile                 : Base Media / Version 2
Codec ID                       : mp42 (mp42/isom/avc1)
File size                      : 1.16 GiB
Duration                       : 1 h 27 min
Overall bit rate mode          : Variable
Overall bit rate               : 1 898 kb/s
Movie name                     : DVD_VR.Title1
Album                          : DVD_VR
Encoded date                   : UTC 2017-06-10 17:45:53
Tagged date                    : UTC 2017-06-10 18:30:58
Writing application            : DVDFab 9.2.1.9
covr                           : Unknown kind of value!

Video
ID                             : 1
Format                         : AVC
Format/Info                    : Advanced Video Codec
Format profile                 : Main@L3
Format settings                : CABAC / 1 Ref Frames
Format settings, CABAC         : Yes
Format settings, RefFrames     : 1 frame
Format settings, GOP           : M=1, N=24
Codec ID                       : avc1
Codec ID/Info                  : Advanced Video Coding
Duration                       : 1 h 27 min
Bit rate                       : 1 789 kb/s
Width                          : 720 pixels
Height                         : 552 pixels
Display aspect ratio           : 4:3
Frame rate mode                : Constant
Frame rate                     : 25.000 FPS
Color space                    : YUV
Chroma subsampling             : 4:2:0
Bit depth                      : 8 bits
Scan type                      : Progressive
Bits/(Pixel*Frame)             : 0.180
Stream size                    : 1.08 GiB (93%)
Writing library                : x264 core 142
Encoding settings              : cabac=1 / ref=1 / deblock=1:0:0 / analyse=0x1:0x111 / me=umh / subme=6 / psy=0 / mixed_ref=0 / me_range=12 / chroma_me=1 / trellis=0 / 8x8dct=0 / cqm=0 / deadzone=21,11 / fast_pskip=1 / chroma_qp_offset=0 / threads=4 / lookahead_threads=1 / sliced_threads=0 / nr=0 / decimate=1 / interlaced=0 / bluray_compat=0 / constrained_intra=0 / bframes=0 / weightp=0 / keyint=24 / keyint_min=13 / scenecut=40 / intra_refresh=0 / rc=abr / mbtree=0 / bitrate=1789 / ratetol=1.0 / qcomp=0.60 / qpmin=0 / qpmax=69 / qpstep=4 / ip_ratio=1.40 / aq=1:1.00
Encoded date                   : UTC 2017-06-10 17:45:53
Tagged date                    : UTC 2017-06-10 18:30:58
Color range                    : Limited
Color primaries                : BT.601 NTSC
Transfer characteristics       : BT.709
Matrix coefficients            : BT.601
Menus                          : 4

Audio
ID                             : 2
Format                         : AAC
Format/Info                    : Advanced Audio Codec
Format profile                 : LC
Codec ID                       : mp4a-40-2
Duration                       : 1 h 27 min
Bit rate mode                  : Variable
Bit rate                       : 128 kb/s
Maximum bit rate               : 130 kb/s
Channel(s)                     : 2 channels
Channel positions              : Front: L R
Sampling rate                  : 48.0 kHz
Frame rate                     : 46.875 FPS (1024 SPF)
Compression mode               : Lossy
Stream size                    : 80.1 MiB (7%)
Title                          : aac 2.0
Default                        : Yes
Alternate group                : 1
Encoded date                   : UTC 2017-06-10 17:45:53
Tagged date                    : UTC 2017-06-10 18:30:58

Text
ID                             : 3
Format                         : VobSub
Codec ID                       : mp4s-E0
Codec ID/Info                  : The same subtitle format used on DVDs
Default                        : Yes
Forced                         : No
Alternate group                : 2
Encoded date                   : UTC 2017-06-10 17:45:53
Tagged date                    : UTC 2017-06-10 17:45:53








Επισκόπηση προηγούμενης Θ.Ενότητας Επισκόπηση επόμενης Θ.Ενότητας Επιστροφή στην κορυφή  Μήνυμα [Σελίδα 1 από 1]


Δικαιώματα σας στην κατηγορία αυτή
Δεν μπορείτε να απαντήσετε στα Θέματα αυτής της Δ.Συζήτησης

Τρόποι Κοινοποίησης:
URL:
BBCode:
HTML: