Σύντομα πολλές κατηγοριες θα είναι ανοιχτές για όλους...

Μη Συνδεδεμενος Παρακαλώ συνδεθείτε ή εγγραφείτε

Επισκόπηση προηγούμενης Θ.Ενότητας Επισκόπηση επόμενης Θ.Ενότητας Πήγαινε κάτω  Μήνυμα [Σελίδα 1 από 1]

#1
 POPIKOSTAS




ΤΣΙΓΓΑΝΙΚΟ ΑΙΜΑ (1956) TVRip

Είδος Ταινίας : .Δραματική
Διάρκεια : .84 λεπτά
Σκηνοθεσία : .Νίκος Τσιφόρος
Σενάριο : .Νίκος Τσιφόρος
Ηθοποιοί : .
Άννα Καλουτά
Μαρία Καλουτά
Μιχάλης Νικολινάκος
Γιώργος Καμπανέλλης
Αλέκα Στρατηγού

Ο έρωτας ενός νεαρού καλλιτέχνη (Μιχάλης Νικολινάκος) με μια τσιγγάνα (Άννα Καλουτά), καθώς κι εκείνος ενός άλλου ζευγαριού (Τιτίκα Γαϊτάνου, Γιώργος Καμπανέλλης), υπερβαίνουν κοινωνικά εμπόδια και αντιπαλότητες.



Κώδικας:
http://cine.gr/film.asp?id=703133

ΤΕΧΝΙΚΑ ΧΑΡΑΚΤΗΡΙΣΤΙΚΑ

Σπόιλερ:

General
Complete name                  : ΤΣΙΓΓΑΝΙΚΟ ΑΙΜΑ TVRIP(1956).mp4
Format                         : MPEG-4
Format profile                 : Base Media / Version 2
Codec ID                       : mp42 (mp42/isom/avc1)
File size                      : 1.13 GiB
Duration                       : 1 h 24 min
Overall bit rate mode          : Variable
Overall bit rate               : 1 920 kb/s
Movie name                     : DVD_VR.Title1
Album                          : DVD_VR
Encoded date                   : UTC 2017-06-10 14:38:34
Tagged date                    : UTC 2017-06-10 15:11:55
Writing application            : DVDFab 9.2.1.9
covr                           : Unknown kind of value!

Video
ID                             : 1
Format                         : AVC
Format/Info                    : Advanced Video Codec
Format profile                 : Main@L3
Format settings                : CABAC / 1 Ref Frames
Format settings, CABAC         : Yes
Format settings, RefFrames     : 1 frame
Codec ID                       : avc1
Codec ID/Info                  : Advanced Video Coding
Duration                       : 1 h 24 min
Bit rate                       : 1 785 kb/s
Width                          : 720 pixels
Height                         : 544 pixels
Display aspect ratio           : 4:3
Frame rate mode                : Constant
Frame rate                     : 25.000 FPS
Color space                    : YUV
Chroma subsampling             : 4:2:0
Bit depth                      : 8 bits
Scan type                      : Progressive
Bits/(Pixel*Frame)             : 0.182
Stream size                    : 1.05 GiB (93%)
Writing library                : x264 core 142
Encoding settings              : cabac=1 / ref=1 / deblock=1:0:0 / analyse=0x1:0x111 / me=umh / subme=6 / psy=0 / mixed_ref=0 / me_range=12 / chroma_me=1 / trellis=0 / 8x8dct=0 / cqm=0 / deadzone=21,11 / fast_pskip=1 / chroma_qp_offset=0 / threads=4 / lookahead_threads=1 / sliced_threads=0 / nr=0 / decimate=1 / interlaced=0 / bluray_compat=0 / constrained_intra=0 / bframes=0 / weightp=0 / keyint=24 / keyint_min=13 / scenecut=40 / intra_refresh=0 / rc=abr / mbtree=0 / bitrate=1785 / ratetol=1.0 / qcomp=0.60 / qpmin=0 / qpmax=69 / qpstep=4 / ip_ratio=1.40 / aq=1:1.00
Encoded date                   : UTC 2017-06-10 14:38:34
Tagged date                    : UTC 2017-06-10 15:11:55
Color range                    : Limited
Color primaries                : BT.601 NTSC
Transfer characteristics       : BT.709
Matrix coefficients            : BT.601
Menus                          : 4

Audio
ID                             : 2
Format                         : AAC
Format/Info                    : Advanced Audio Codec
Format profile                 : LC
Codec ID                       : mp4a-40-2
Duration                       : 1 h 24 min
Bit rate mode                  : Variable
Bit rate                       : 128 kb/s
Maximum bit rate               : 130 kb/s
Channel(s)                     : 2 channels
Channel positions              : Front: L R
Sampling rate                  : 48.0 kHz
Frame rate                     : 46.875 FPS (1024 SPF)
Compression mode               : Lossy
Stream size                    : 77.1 MiB (7%)
Title                          : aac 2.0
Default                        : Yes
Alternate group                : 1
Encoded date                   : UTC 2017-06-10 14:38:34
Tagged date                    : UTC 2017-06-10 15:11:55

Text
ID                             : 3
Format                         : VobSub
Codec ID                       : mp4s-E0
Codec ID/Info                  : The same subtitle format used on DVDs
Default                        : Yes
Forced                         : No
Alternate group                : 2
Encoded date                   : UTC 2017-06-10 14:38:34
Tagged date                    : UTC 2017-06-10 14:38:34








Επισκόπηση προηγούμενης Θ.Ενότητας Επισκόπηση επόμενης Θ.Ενότητας Επιστροφή στην κορυφή  Μήνυμα [Σελίδα 1 από 1]


Δικαιώματα σας στην κατηγορία αυτή
Δεν μπορείτε να απαντήσετε στα Θέματα αυτής της Δ.Συζήτησης

Τρόποι Κοινοποίησης:
URL:
BBCode:
HTML: