Σύντομα πολλές κατηγοριες θα είναι ανοιχτές για όλους...

Μη Συνδεδεμενος Παρακαλώ συνδεθείτε ή εγγραφείτε

Επισκόπηση προηγούμενης Θ.Ενότητας Επισκόπηση επόμενης Θ.Ενότητας Πήγαινε κάτω  Μήνυμα [Σελίδα 1 από 1]

#1
 POPIKOSTAS




Ο ΤΣΑΛΑΠΕΤΕΙΝΟΣ ΤΟΥ WYOMING (1995) TVRip

Είδος Ταινίας : .Δραματική
Διάρκεια : .79 λεπτά
Σκηνοθεσία : .Δημήτρης Ινδαρές
Σενάριο : .Δημήτρης Ινδαρές
Ηθοποιοί : .
Αλέξανδρος Λογοθέτης
Βίκυ Βολιώτη
Χρήστος Καλαβρούζος
Μπέττυ Λιβανού
Ηλίας Λογοθέτης
Νάντια Δεληγιάννη
Κωνσταντίνος Μαρκουλάκης
Θεοδώρα Τζήμου
Κάρμεν Ρουγγέρη

Με μια μητερα εγκυο στα 42, που επιμενει να φερει στον κοσμο μονη αλλο ενα παιδι αγνωστου πατρος...

Με το αφεντικο του, φιλο και πατερα μαζι, να δοκιμαζεται στα 55 απ` τον ερωτα...

Αναμεσα σε γυναικες, που ολες κατι κρυβουν, ανακαλωντας του αισθηματα που συγχεονται με τον ερωτα...

Τρεις μηνες απ` τη ζωη του 20χρονου Μιχαλη, μικρα και μεγαλα αλματα προς την ενηλικιωση του.



Κώδικας:
http://www.imdb.com/title/tt0128307/?ref_=ttmi_tt
http://www.cine.gr/film.asp?id=650792&page=4

ΤΕΧΝΙΚΑ ΧΑΡΑΚΤΗΡΙΣΤΙΚΑ

Σπόιλερ:

General
Complete name                  : Ο ΤΣΑΛΑΠΕΤΕΙΝΟΣ ΤΟΥ WYOMING TVRIP(1995).mp4
Format                         : MPEG-4
Format profile                 : Base Media / Version 2
Codec ID                       : mp42 (mp42/isom/avc1)
File size                      : 1.03 GiB
Duration                       : 1 h 18 min
Overall bit rate mode          : Variable
Overall bit rate               : 1 865 kb/s
Movie name                     : MY DVD.Title1
Album                          : MY DVD
Encoded date                   : UTC 2017-06-10 11:25:16
Tagged date                    : UTC 2017-06-10 11:52:51
Writing application            : DVDFab 9.2.1.9
covr                           : Unknown kind of value!

Video
ID                             : 1
Format                         : AVC
Format/Info                    : Advanced Video Codec
Format profile                 : Main@L3
Format settings                : CABAC / 1 Ref Frames
Format settings, CABAC         : Yes
Format settings, RefFrames     : 1 frame
Format settings, GOP           : M=1, N=24
Codec ID                       : avc1
Codec ID/Info                  : Advanced Video Coding
Duration                       : 1 h 18 min
Bit rate                       : 1 729 kb/s
Width                          : 720 pixels
Height                         : 480 pixels
Display aspect ratio           : 3:2
Frame rate mode                : Constant
Frame rate                     : 25.000 FPS
Color space                    : YUV
Chroma subsampling             : 4:2:0
Bit depth                      : 8 bits
Scan type                      : Progressive
Bits/(Pixel*Frame)             : 0.200
Stream size                    : 978 MiB (93%)
Writing library                : x264 core 142
Encoding settings              : cabac=1 / ref=1 / deblock=1:0:0 / analyse=0x1:0x111 / me=umh / subme=6 / psy=0 / mixed_ref=0 / me_range=12 / chroma_me=1 / trellis=0 / 8x8dct=0 / cqm=0 / deadzone=21,11 / fast_pskip=1 / chroma_qp_offset=0 / threads=4 / lookahead_threads=1 / sliced_threads=0 / nr=0 / decimate=1 / interlaced=0 / bluray_compat=0 / constrained_intra=0 / bframes=0 / weightp=0 / keyint=24 / keyint_min=13 / scenecut=40 / intra_refresh=0 / rc=abr / mbtree=0 / bitrate=1729 / ratetol=1.0 / qcomp=0.60 / qpmin=0 / qpmax=69 / qpstep=4 / ip_ratio=1.40 / aq=1:1.00
Encoded date                   : UTC 2017-06-10 11:25:16
Tagged date                    : UTC 2017-06-10 11:52:51
Color range                    : Limited
Color primaries                : BT.601 NTSC
Transfer characteristics       : BT.709
Matrix coefficients            : BT.601
Menus                          : 3

Audio
ID                             : 2
Format                         : AAC
Format/Info                    : Advanced Audio Codec
Format profile                 : LC
Codec ID                       : mp4a-40-2
Duration                       : 1 h 18 min
Bit rate mode                  : Variable
Bit rate                       : 128 kb/s
Maximum bit rate               : 131 kb/s
Channel(s)                     : 2 channels
Channel positions              : Front: L R
Sampling rate                  : 48.0 kHz
Frame rate                     : 46.875 FPS (1024 SPF)
Compression mode               : Lossy
Stream size                    : 72.3 MiB (7%)
Title                          : Greek (aac 2.0)
Language                       : Greek
Default                        : Yes
Alternate group                : 1
Encoded date                   : UTC 2017-06-10 11:25:16
Tagged date                    : UTC 2017-06-10 11:52:51








Επισκόπηση προηγούμενης Θ.Ενότητας Επισκόπηση επόμενης Θ.Ενότητας Επιστροφή στην κορυφή  Μήνυμα [Σελίδα 1 από 1]


Δικαιώματα σας στην κατηγορία αυτή
Δεν μπορείτε να απαντήσετε στα Θέματα αυτής της Δ.Συζήτησης

Τρόποι Κοινοποίησης:
URL:
BBCode:
HTML: